Maurice Ravel, Jules Massenet, Johann Strauss, Erik Satie, Franz Liszt - Ashton Celebration: The Royal Ballet Dances Frederick Ashton (Frederick Ashton, Emmanuel Plasson) [2013, Ballet, BDRip]


 

[Цитировать]

Ashton Celebration: The Royal Ballet Dances Frederick Ashton
Год выпуска: 2013
Лейбл: Opus Arte
Страна-производитель: США
Жанр: Ballet
Продолжительность: 01:28:52
Дирижер: Emmanuel Plasson
Исполнители музыки: Royal Opera House Orchestra
Музыка: Maurice Ravel, Jules Massenet, Johann Strauss, Erik Satie, Franz Liszt
Режиссер/Хореограф: Фредерик Аштон / Frederick Ashton
Исполнители: Hikaru Kobayashi, Ryoichi Hirano, Samantha Raine, Bennet Gartside, Helen Crawford, Brian Maloney, Leanne Benjamin, Valeri Hristov, Yuhui Choe, Alexander Campbell, Emma Maguire, Akane Takada, Dawid Trzensimiech, Marianela Nuñez, Nehemian Kish, Edward Watson, Tamara Rojo, Christopher Saunders, Sergei Polunin, Gary Avis, The Royal Ballet
Треклист:
La Valse
Music: Maurice Ravel: La Valse
Hikaru Kobayashi, Ryoichi Hirano, Samantha Raine, Bennet Gartside, Helen Crawford, Brian Maloney
Meditation from Thaïs
Music:Jules Massenet: Thaïs, Act II: Meditation
Leanne Benjamin, Valeri Hristov
Voices of Spring
Music:Johann Strauss: Fruhlingsstimmen (Voices of Spring), Op. 410
Yuhui Choe, Alexander Campbell
Monotones I and II
Music:Erik Satie: Gnoissienes and Gymnopedies
Monotones I :Emma Maguire, Akane Takada, Dawid Trzensimiech
Monotones II: Marianela Nuñez, Nehemian Kish, Edward Watson
Marguerite and Armand
Music:Franz Liszt: Piano Sonata in B Minor, S178/R21
Tamara Rojo, Sergei Polunin
Описание:
Frederick Ashton, Founder Choreographer of The Royal Ballet, was one of the 20th century’s most influential choreographers, whose musical, subtle and graceful style and extraordinary gift for storytelling had a profound impact on the development of British ballet. This special programme, performed at the Royal Opera House to mark the 25th anniversary of Ashton’s death, presents five works that showcase his astonishing versatility, from compelling abstract ballets – such as the exuberant Voices of Spring and the radically modernist Monotones – to the tragic love story Marguerite and Armand, brought to life with ‘performances of heart-wrenching intensity’ (The Observer) by Tamara Rojo and Sergei Polunin.
Доп. информация: Recorded live at the Royal Opera House, February 2013.
Огромное спасибо pjhhd и BLUE_LIFE
Качество видео: BDRip
Формат/Контейнер: MKV
Видео кодек: H.264
Аудио кодек: AC3
Видео поток: MPEG4 Video (H264) 1920x1080 29.97fps
Аудио поток: Dolby AC3 48000Hz 6ch 448 Kbps
семпл http://multi-up.com/929493

Mediainfo

Format : Matroska
File size : 7.11 GiB
Duration : 1h 28mn
Overall bit rate : 11.5 Mbps
Encoded date : UTC 2013-12-03 10:57:20
Writing application : mkvmerge v2.4.2 ('Oh My God') built on Jan 18 2009 17:30:28
Writing library : libebml v0.7.7 + libmatroska v0.8.1
Video
ID : 1
Format : AVC
Format/Info : Advanced Video Codec
Format profile : High@L4.1
Format settings, CABAC : Yes
Format settings, ReFrames : 3 frames
Muxing mode : Container profile=Unknown@4.1
Codec ID : V_MPEG4/ISO/AVC
Duration : 1h 28mn
Bit rate : 11.0 Mbps
Width : 1 920 pixels
Height : 1 080 pixels
Display aspect ratio : 16:9
Frame rate mode : Variable
Frame rate : 29.970 fps
Color space : YUV
Chroma subsampling : 4:2:0
Bit depth : 8 bits
Scan type : MBAFF
Bits/(Pixel*Frame) : 0.177
Stream size : 6.69 GiB (94%)
Writing library : x264 core 116 r2019M 9cc407d
Encoding settings : cabac=1 / ref=3 / deblock=1:-1:-1 / analyse=0x3:0x133 / me=umh / subme=9 / psy=1 / psy_rd=1.00:0.15 / mixed_ref=1 / me_range=16 / chroma_me=1 / trellis=1 / 8x8dct=1 / cqm=0 / deadzone=21,11 / fast_pskip=1 / chroma_qp_offset=-3 / threads=12 / sliced_threads=0 / nr=0 / decimate=1 / interlaced=tff / bluray_compat=0 / constrained_intra=0 / bframes=3 / b_pyramid=1 / b_adapt=2 / b_bias=0 / direct=3 / weightb=1 / open_gop=0 / weightp=0 / keyint=290 / keyint_min=29 / scenecut=40 / intra_refresh=0 / rc_lookahead=40 / rc=2pass / mbtree=1 / bitrate=11000 / ratetol=1.0 / qcomp=0.60 / qpmin=10 / qpmax=51 / qpstep=4 / cplxblur=20.0 / qblur=0.5 / ip_ratio=1.40 / aq=1:1.00
Audio
ID : 2
Format : AC-3
Format/Info : Audio Coding 3
Mode extension : CM (complete main)
Codec ID : A_AC3
Duration : 1h 28mn
Bit rate mode : Constant
Bit rate : 448 Kbps
Channel(s) : 6 channels
Channel positions : Front: L C R, Side: L R, LFE
Sampling rate : 48.0 KHz
Bit depth : 16 bits
Stream size : 285 MiB (4%)

Скриншоты




Показать сообщения:    

Текущее время: 21-Янв 11:38

Часовой пояс: UTC + 3


Вы не можете начинать темы
Вы не можете отвечать на сообщения
Вы не можете редактировать свои сообщения
Вы не можете удалять свои сообщения
Вы не можете голосовать в опросах
Вы не можете прикреплять файлы к сообщениям
Вы не можете скачивать файлы