Женщины и мужчины 2: В любви нет правил / Women & Men 2: In Love There Are No Rules (Майк Фиггис / Mike Figgis ) [1991, США, драма, мелодрама, DVDRip] MVO


Статистика раздачи [Обновить пиров]
Размер:  543 MB   |    Зарегистрирован:  8 месяцев 23 дня   |    Скачан:  1 раз

Полного источника не было: 1 месяц 14 дней

 
   
 
 
 

[Цитировать]

Женщины и мужчины 2: В любви нет правил
Фильм МАРА
по рассказу Генри Миллера

Women & Men 2: In Love There Are No Rules-Страна: США
Жанр: драма, мелодрама
Год выпуска: 1991
Продолжительность: 00:30:28
Перевод: Профессиональный (многоголосый закадровый)
Cубтитры: нет
Режиссер: Майк Фиггис / Mike Figgis
В ролях: Скотт Гленн, Жюльет Бинош, Фредерик Рафаэль, Люси Де Ла Феле, Клаудия Хьюидобро, Жан Марк Эдер, Марин Дельтерм, Мари-Софи Уилсон
Описание: Мара сегодня, волею судеб, уже не хозяйка ночного клуба в Варшаве, а проститутка на улицах Парижа. В приличные ночные заведения, с ее обликом - ей путь закрыт. На улицах - разборки с конкурентками по цеху, а гость Парижа, американский писатель Генри, приглашает ее вместе по-ужинать...
-- СЭМПЛ
Качество видео: DVDRip, спасибо colt451 за исходник DVD9 (Custom)
Формат видео: AVI
Видео: XviD, 624x464 (1.34:1), 23.976 fps, 2290 kbps avg, 0.33 bit/pixel
Аудио: AC3 Dolby Digital, 48 kHz, 192 kbps, 2/0 (L,R) ch

СкриншотыС названием

MediaInfo

Общее
Полное имя                       : Zhenshchiny.i.Muzhchiny.2_V.Lyubvi.net.Pravil.1991.XviD.DVDRip.MetionInka.avi
Формат                           : AVI
Формат/Информация                : Audio Video Interleave
Размер файла                     : 543 Мбайт
Продолжительность                : 30 м.
Общий поток                      : 2492 Кбит/сек
Название фильма                  : Zhenshchiny.i.Muzhchiny.2_V.Lyubvi.net.Pravil.1991.XviD.DVDRip.MetionInka
Режиссёр                         : rip by MetionInka
Жанр                             : Drama/Romance
Программа кодирования            : VirtualDubMod 1.5.10.3 | www.virtualdub-fr.org || (build 2550/release)
Формат оригинала/Имя             : Women & Men 2
Правообладатель                  : rutracker.org
Примечание                       : rusMVO
[br]
Видео
Идентификатор                    : 0
Формат                           : MPEG-4 Visual
Профиль формата                  : Advanced Simple@L5
Параметр BVOP формата            : 2
Параметр QPel формата            : Нет
Параметр GMC формата             : Без точки перехода
Параметр матрицы формата         : Выборочная
Идентификатор кодека             : XVID
Идентификатор кодека/Подсказка   : XviD
Продолжительность                : 30 м.
Битрейт                          : 2291 Кбит/сек
Ширина                           : 624 пикселя
Высота                           : 464 пикселя
Соотношение сторон               : 4:3
Частота кадров                   : 23,976 кадра/сек
Цветовое пространство            : YUV
Субдискретизация насыщенности    : 4:2:0
Битовая глубина                  : 8 бит
Тип развёртки                    : Прогрессивная
Метод сжатия                     : С потерями
Бит/(Пиксели*Кадры)              : 0.330
Размер потока                    : 499 Мбайт (92%)
Библиотека кодирования           : XviD 73
[br]
Аудио
Идентификатор                    : 1
Формат                           : AC-3
Формат/Информация                : Audio Coding 3
Расширение режима                : CM (complete main)
Идентификатор кодека             : 2000
Продолжительность                : 30 м.
Вид битрейта                     : Постоянный
Битрейт                          : 192 Кбит/сек
Каналы                           : 2 канала
Расположение каналов             : Front: L R
Частота                          : 48,0 КГц
Битовая глубина                  : 16 бит
Метод сжатия                     : С потерями
Размер потока                    : 41,8 Мбайт (8%)
Выравнивание                     : Разделение по промежуткам
Продолжительность промежутка     : 42  мс. (1,00 видеокадр)
Время предзагрузки промежутка    : 500  мс.
Дополнительная информацияЗдесь представлена третья новелла, которая была на исходнике DVD в составе фильма 1991 года, состоящем из трех новелл. Только на эту есть перевод. Субтитров на первые две - тоже не нашла
[teatrix.ru].t15263.torrent 
Торрент: Зарегистрирован [ 2016-03-14 00:49 ] · A3AC6C9C7DB88F2FD3773D81414E855A4DD3A8E0

Скачать .torrent

Скачать

11 KB

Статус: проверено
Скачан: 1 раз
Размер: 543 MB
terms.php



Быстрый ответ

Имя:

      
Для отправки сообщений необходимо включить JavaScript
Показать сообщения:    

Текущее время: 06-Дек 22:51

Часовой пояс: UTC + 3


Вы можете начинать темы
Вы можете отвечать на сообщения
Вы не можете редактировать свои сообщения
Вы не можете удалять свои сообщения
Вы не можете голосовать в опросах
Вы не можете прикреплять файлы к сообщениям
Вы можете скачивать файлы