XII Dance Open de St Petersbourg : Histoire du ballet classique russe; Le meilleur des pas de deux / История русского классического балета; Лучшие па-де-де [2013, Ballet, TVRip] Mezzo


 

[Цитировать]

XII Dance Open de St Petersbourg:
Histoire du ballet classique russe / Le meilleur des pas de deux
История русского классического балета / Лучшие па-де-де

Год выпуска: 2013
Эфир: сегодня, 7.12.2013
Лейбл: Mezzo TV
Страна-производитель: France
Жанр: Ballet
Продолжительность:
Histoire du ballet classique russe - 1:27:17
Le meilleur des pas de deux - 1:40:32
Режиссер: Jack Fébus
Качество видео: TVRip
Формат/Контейнер: MPG
Видео кодек: MPEG2
Аудио кодек: MP2
Видео поток:
MPEG 2 Video, 704×576i, 2200 Kbps, 25 fps
Аудио поток:
MPEG 2 Audio, 256 Kbps, 48.0 KHz, 2 channels
Letterbox 16:9 развёртка до 1024×576i

Треклист / Исполнители: Histoire du ballet classique russe

1 Chorégraphie : Arthur Saint-Léon
"Le petit cheval bossu"
(Anastasia Kolegova, Ekaterina Osmolkina,
Elena Evseeva et Anna Tikhomirova)
Musique : C. Pugni
2 Chorégraphie : Jules Perrot / Marius Petipa
"Esmeralda"
(Iana Salenko et Dinu Tamazlacaru)
Musique : C. Pugni
3 Chorégraphie : Michel Fokine
"La Mort du cygne"
(Uliana Lopatkina)
Musique : C. Saint-Saëns
4 Chorégraphie : Alexandre Gorski
"Don Quichotte"
(Kristina Kretova et Leonld Sarafanov)
Musique : L/ Minkus
5 Chorégraphie : George Balanchine
"Who Cares?"
(Sterling Myltin et Amar Ramasar)
Musique : G. Gershwin, arr H. Kay
6 Chorégraphie : Leonid Lavrovsky
"Roméo et Jullette"
(Evguenia Obraztsova et Igor Kolb
Musique : S. Prokofiev
7 Chorégraphie : I. Larlonov
"Grande Valse"
(Les élèves de l'academie de ballet Vaganova)
Musique : R. Glière
8 Chorégraphie : Vasily Medvedev
"Onegin"
(Isabelle Ciaravola et Yury Smekalov)
Musique : P. Tchaikoviky
9 Chorégraphie : Yuri Possokhov
"Symphonie Classique"
(Sirvtyon Chudin, Anastasia Stashkevich,
Mlkhall Kochan, Anna Tikhomirova, Artem Ovcharenko)
Musique : S. Prokofiev

Треклист / Исполнители: Le meilleur des pas de deux

1 Chorégraphie : Jules Perrot / Marius Petipa
"Esmeralda"
(Iana Salenko et Dinu Tamazlacaru)
Musique : C. Pugni
2 Chorégraphie : Michel Fokine
"La Mort du cygne"
(Uliana Lopatkina)
Musique : C. Saint-Saëns
3 Chorégraphie : Alexandre Gorski
"Don Quichotte"
(Kristina Kretova et Leonld Sarafanov)
Musique : L. Minkus
4 Chorégraphie : Vassili Vainonen
"Flammes de Paris"
(Anastasia Meskova, Anastasia Stashkevich,
Mikhail Lobukhin, Denis Savin et Dmitry Dorokhov)
Musique : B. Asafiev
5 Chorégraphie : Leonid Lavrovsky
"Roméo et Jullette"
(Evguenia Obraztsova et Igor Kolb
Musique : S. Prokofiev
6 Chorégraphie : Peter Marlins
"It shoulda been me"
(Daniel Ulbricht)
Musique : R. Charles
7 Chorégraphie : Marius Petipa / Vasily Medvedev
"Le talisman"
(Anastasia Stashkevich et Yonah Acosta)
Musique : R. Drigo
8 Chorégraphie : Vasily Medvedev
"Onegin"
(Isabelle Ciaravola et Yury Smekalov)
Musique : P. Tchaikoviky
9 Chorégraphie : Agrippina Vaganova
"Esmeralda"
(Iana Salenko et Herman Cornejo)
Musique : C. Pugni
10 Chorégraphie : Leonid Lavrovsky
"La nuit de Walpurgis de l'opera Faust"
(Anna Tsigankova, Matthew Golding et Daniel Ulbricht)
Musique : C. Gounod

MediaInfo

General
ID : 16 (0x10)
Complete name : G:\Torrent\Dance Open 2013 - Histoire du ballet classique russe.mpg
Format : MPEG-TS
File size : 1.37 GiB
Duration : 1h 27mn
Overall bit rate mode : Variable
Overall bit rate : 2 244 Kbps
Video
ID : 341 (0x155)
Menu ID : 20508 (0x501C)
Format : MPEG Video
Format version : Version 2
Format profile : Main@Main
Format settings, BVOP : Yes
Format settings, Matrix : Custom
Format settings, GOP : M=3, N=12
Codec ID : 2
Duration : 1h 27mn
Bit rate mode : Variable
Bit rate : 1 875 Kbps
Maximum bit rate : 5 000 Kbps
Width : 704 pixels
Height : 576 pixels
Display aspect ratio : 16:9
Active Format Description : Letterbox 16:9 image
Frame rate : 25.000 fps
Standard : PAL
Color space : YUV
Chroma subsampling : 4:2:0
Bit depth : 8 bits
Scan type : Interlaced
Scan order : Top Field First
Compression mode : Lossy
Bits/(Pixel*Frame) : 0.185
Stream size : 1.14 GiB (84%)
Audio
ID : 431 (0x1AF)
Menu ID : 20508 (0x501C)
Format : MPEG Audio
Format version : Version 1
Format profile : Layer 2
Codec ID : 3
Duration : 1h 27mn
Bit rate mode : Constant
Bit rate : 256 Kbps
Channel(s) : 2 channels
Sampling rate : 48.0 KHz
Compression mode : Lossy
Stream size : 160 MiB (11%)

Скриншоты


Описание: Фильм-отчёт о прохождении XII-го международного фестиваля балета "Dance Open" в Санкт-Петербурге в 2013 году.
В первой части "История русского классического балета" танцевальные номера перемежаются разговорами на русском с французскими субтитрами и краткими закадровыми комментариями на французском по теме фильма.
Во втором фильме "Лучшие па-де-де" - только танец.
Часть программы повторяется и является общей для обоих фильмов.



Показать сообщения:    

Текущее время: 09-Дек 03:02

Часовой пояс: UTC + 3


Вы не можете начинать темы
Вы не можете отвечать на сообщения
Вы не можете редактировать свои сообщения
Вы не можете удалять свои сообщения
Вы не можете голосовать в опросах
Вы не можете прикреплять файлы к сообщениям
Вы не можете скачивать файлы