Петр Чайковский - Спящая красавица (Рудольф Нуриев) / La Belle au Bois Dormant / Tchaikovski - The Sleeping Beauty (Rudolf Noureev, Faycal Karoui) [2013, Ballet, HDTVRip]


 

[Цитировать]

Спящая красавица / La Belle au Bois Dormant / The Sleeping Beauty
Год выпуска: 2013
Лейбл: Opera Bastille
Страна-производитель: Франция
Жанр: Ballet
Продолжительность: 02:38:30
Композитор: Петр Ильич Чайковский
Дирижер: Fayçal Karoui
Исполнители музыки: Orchestra of the Opéra national de Paris
Режиссер/Хореограф: Рудольф Нуриев / Rudolf Noureev after Marius Petipa
Исполнители:
La princesse Aurore - Myriam Ould-Braham
Le prince Desire - Mathias Heymann
Le prince Florine - Valentine Colasante
L Oiseau Bleu Francoic Alu
Le Roi Florestan XIV – Vincent Cordier
La Reine – Christine Peltzer
La Fee Lilas – Marie-Solene Boulet
Описание: The “Ballet of ballets,” Sleeping Beauty remains one of the jewels in the heritage of dance. Virtuosity together with sumptuous sets and costumes recreate the splendour of one of the most brilliant masterpieces in the classical repertoire.
Доп. информация: Запись трансляции 12.16.2013
Запись трансляции выполнена MAURICELUGHER, за что ему огромное спасибо.
Качество видео: HDTVRip
Формат/Контейнер: TS
Видео кодек: MPEG2
Аудио кодек: AC3
Видео поток: MPG2 1920x1080 25.00fps
Аудио поток: Dolby AC3 48000Hz 6ch

Mediainfo Part I

Format : MPEG-TS
File size : 11.7 GiB
Duration : -8h 38mn
Start time : UTC 2014-01-16 18:20:59
Overall bit rate : 4 292 Mbps
Network name : Globecast Reportages
Video
ID : 512 (0x200)
Menu ID : 1 (0x1)
Format : MPEG Video
Format version : Version 2
Format profile : Main@High
Format settings, BVOP : No
Format settings, Matrix : Default
Format settings, GOP : M=1, N=11
Duration : 1h 12mn
Bit rate mode : Constant
Width : 1 920 pixels
Height : 1 080 pixels
Display aspect ratio : 16:9
Frame rate : 25.000 fps
Color space : YUV
Chroma subsampling : 4:2:0
Bit depth : 8 bits
Scan type : Interlaced
Scan order : Top Field First
Audio #1
ID : 4112 (0x1010)
Menu ID : 1 (0x1)
Format : AC-3
Format/Info : Audio Coding 3
Mode extension : CM (complete main)
Duration : 1h 12mn
Bit rate mode : Constant
Bit rate : 384 Kbps
Channel(s) : 6 channels
Channel positions : Front: L C R, Side: L R, LFE
Sampling rate : 48.0 KHz
Bit depth : 16 bits
Video delay : -26ms
Stream size : 200 MiB (2%)
Language : French
Audio #2
ID : 4128 (0x1020)
Menu ID : 1 (0x1)
Format : MPEG Audio
Format version : Version 1
Format profile : Layer 2
Duration : 1h 12mn
Bit rate mode : Constant
Bit rate : 384 Kbps
Channel(s) : 2 channels
Sampling rate : 48.0 KHz
Video delay : -68ms
Stream size : 200 MiB (2%)
Language : English
Menu
ID : 2048 (0x800)
Menu ID : 1 (0x1)
List : 512 (0x200) (MPEG Video) / 4112 (0x1010) (AC-3, French) / 4128 (0x1020) (MPEG Audio, English)
Language : / French / English
Service name : GCR/F34/1/opera bastille
Service provider : GlobeCast Reportages
Service type : MPEG-2 HD digital television

Скриншоты




Показать сообщения:    

Текущее время: 05-Дек 21:30

Часовой пояс: UTC + 3


Вы не можете начинать темы
Вы не можете отвечать на сообщения
Вы не можете редактировать свои сообщения
Вы не можете удалять свои сообщения
Вы не можете голосовать в опросах
Вы не можете прикреплять файлы к сообщениям
Вы не можете скачивать файлы