Юбилейный вечер Галины Волчек [2013, Россия, Бенефис, HDTV 1080i] Современник


Статистика раздачи [Обновить пиров]
Размер:  6.9 GB   |    Зарегистрирован:  8 месяцев 24 дня   |    Скачан:  0 раз

Полного источника не было: Никогда

 
   
 
 
 

[Цитировать]

Юбилейный вечер Галины Волчек
Название театра: Современник
Страна: Россия
Жанр: Бенефис
Год выпуска: 2013
Продолжительность: 01:27:03
Перевод: Не требуется
Язык: Русский
Cубтитры: нет
Оригинальная аудиодорожка: русский
В ролях: Иосиф Кобзон, Геннадий Хазанов, Константин Райкин, Валентин Гафт, Гарик Сукачев, Александр Градский, Максим Галкин, Иван Ургант, Владимир Познер и другие.
Описание: Ее называют лицом русского театра, бескомпромиссным режиссером, опорой для друзей, кумиром зрителей. 19 декабря у Галины Волчек юбилей. В этот день поздравить Галину Борисовну соберется весь цвет театральной Москвы. Татьяна Тарасова: "На многих ее спектаклях я проливала горькие слезы и заставала себя между сиденьями в слезах, и благодарна за эти потрясения".
Доп. информация: Релиз -

Рип чистый. Без посторонних надписей. Выкладывается как есть.
Качество: HDTV 1080i
Контейнер: TS
Видео кодек: AVC
Аудио кодек: MP2
Видео: 1920x1080 (16:9) 25.000 fps 10.6 Mbps, 0.204 bit/pixel
Аудио: MPEG Audio 48000Hz stereo 192 Кбит/сек

Скринлист

Постер HQ

MI

General
ID : 1 (0x1)
Complete name : D:\Выкладка\Юбилейный вечер Галины Волчек в театре Современник (2013, Бенефис, Театр, HDTV 1080i) (MYDIMKA).ts
Format : MPEG-TS
File size : 6.90 GiB
Duration : 1h 27mn
Overall bit rate mode : Variable
Overall bit rate : 11.3 Mbps
Video
ID : 305 (0x131)
Menu ID : 1 (0x1)
Format : AVC
Format/Info : Advanced Video Codec
Format profile : High@L4.0
Format settings, CABAC : Yes
Format settings, ReFrames : 3 frames
Format settings, GOP : M=4, N=28
Codec ID : 27
Duration : 1h 27mn
Bit rate : 10.6 Mbps
Width : 1 920 pixels
Height : 1 080 pixels
Display aspect ratio : 16:9
Frame rate : 25.000 fps
Standard : Component
Color space : YUV
Chroma subsampling : 4:2:0
Bit depth : 8 bits
Scan type : Interlaced
Scan order : Top Field First
Bits/(Pixel*Frame) : 0.204
Stream size : 6.44 GiB (93%)
Color primaries : BT.709
Transfer characteristics : BT.709
Matrix coefficients : BT.709
Audio
ID : 405 (0x195)
Menu ID : 1 (0x1)
Format : MPEG Audio
Format version : Version 1
Format profile : Layer 2
Codec ID : 3
Duration : 1h 27mn
Bit rate mode : Constant
Bit rate : 192 Kbps
Channel count : 2 channels
Sampling rate : 48.0 KHz
Compression mode : Lossy
Stream size : 120 MiB (2%)
Language : English
[teatrix.ru].t15277.torrent 
Торрент: Зарегистрирован [ 2016-03-14 00:49 ] · 71ECDC4C467DDAEA691FF6FF1ABE804401D2BC4F

Скачать .torrent

Скачать

35 KB

Статус: проверено
Скачан: 0 раз
Размер: 6.9 GB
terms.php



Быстрый ответ

Имя:

      
Для отправки сообщений необходимо включить JavaScript
Показать сообщения:    

Текущее время: 07-Дек 17:30

Часовой пояс: UTC + 3


Вы можете начинать темы
Вы можете отвечать на сообщения
Вы не можете редактировать свои сообщения
Вы не можете удалять свои сообщения
Вы не можете голосовать в опросах
Вы не можете прикреплять файлы к сообщениям
Вы можете скачивать файлы