Праздничная вечеринка / Soir de fete / Soir de fête (Давид Робер / David Robert) [2013, Франция, комедия абсурда, короткий метр, DVB] Original (Fre) + Sub (rus)


Статистика раздачи [Обновить пиров]
Размер:  526 MB   |    Зарегистрирован:  8 месяцев 28 дней   |    Скачан:  0 раз

Полного источника не было: Никогда

 
   
 
 
 

[Цитировать]

Праздничная вечеринка
Soir de fête- Страна: Франция
Жанр: комедия абсурда, короткий метр
Год выпуска: 2013
Продолжительность: 00:17:51
Перевод: Субтитры (перевод Éclair Group)
Cубтитры: русские
Оригинальная аудиодорожка: французский
Режиссер: Давид Робер / David RobertВ ролях: Бенджамин Ванжерми / Benjamin Wangermée (Joachim), Эрик Аверлан / Éric Averlant (the ranter), Мишель Эри / Michèle Héry (Olga), Флавьен Тассар / Flavien Tassart (Libellule)
Описание: Жоаким, работающий медбратом в психбольнице, собирается провести Сочельник в кругу семьи, но коллега неожиданно просит подменить его… Мало того, что Жоакиму предстоит провести незабываемую праздничную ночь с экзальтированными личностями, так еще его личная жизнь трещит по швам…
Доп. информация: Запись со спутника (телеканал TV5MONDE).
Награды: приз жюри за 2-е место Festival 3D de Grenoble 2013. Участник программы "От всего сердца / Coup de cœur" - Festival de Cannes 2013.
[box]http://www.imdb.com/title/tt2855034/[/box]
Сэмпл: http://dfiles.ru/files/g3cp88lw7 (multi-up не работает)
Качество видео: DVB
Формат видео: MPEG-PS (См. при проблемах с просмотром видео)
Видео: MPEG Video 2, 720x576@1024x576 (16:9), 25 fps, ~3837 kbps avg, 0.370 bit/pixel
Аудио: Французский (48 kHz, MPEG Audio 2, 2 ch, ~192.00 kbps avg)
Формат субтитров: hardsub (неотключаемые)

MediaInfo

Полное имя                               : H:\My Torrents\[apreder]MINI_MOVIE_008\[apreder]MM_Soir_de_fete(2013)DVB.mpg
Формат : MPEG-PS
Размер файла : 526 Мбайт
Продолжительность : 17 м.
Режим общего битрейта : Переменный
Общий поток : 4111 Кбит/сек
Видео
Идентификатор : 224 (0xE0)
Формат : MPEG Video
Версия формата : Version 2
Профиль формата : Main@Main
Параметр BVOP формата : Да
Параметр матрицы формата : Выборочная
Параметр GOP формата : M=3, N=24
Продолжительность : 17 м.
Вид битрейта : Переменный
Битрейт : 3837 Кбит/сек
Ширина : 720 пикселей
Высота : 576 пикселей
Соотношение сторон : 16:9
Частота кадров : 25,000 кадров/сек
Стандарт вещания : PAL
Цветовое пространство : YUV
Субдискретизация насыщенности : 4:2:0
Битовая глубина : 8 бит
Метод сжатия : С потерями
Бит/(Пиксели*Кадры) : 0.370
Временной код первого кадра : 00:00:00:00
Оригинал временного кода : Group of pictures header
Размер потока : 491 Мбайт (93%)
Аудио
Идентификатор : 192 (0xC0)
Формат : MPEG Audio
Версия формата : Version 1
Профиль формата : Layer 2
Продолжительность : 17 м.
Вид битрейта : Постоянный
Битрейт : 192 Кбит/сек
Каналы : 2 канала
Частота : 48,0 КГц
Метод сжатия : С потерями
Размер потока : 24,6 Мбайт (5%)

Скриншот c названием фильма

Скриншоты

Резервные скриншоты

-1'117/1'099√
[teatrix.ru].t15280.torrent 
Торрент: Зарегистрирован [ 2016-03-14 00:49 ] · 6320343424EE9EDA84FF37D86792E56CAC36386B

Скачать .torrent

Скачать

11 KB

Статус: проверено
Скачан: 0 раз
Размер: 526 MB
terms.php



Быстрый ответ

Имя:

      
Для отправки сообщений необходимо включить JavaScript
Показать сообщения:    

Текущее время: 11-Дек 14:59

Часовой пояс: UTC + 3


Вы можете начинать темы
Вы можете отвечать на сообщения
Вы не можете редактировать свои сообщения
Вы не можете удалять свои сообщения
Вы не можете голосовать в опросах
Вы не можете прикреплять файлы к сообщениям
Вы можете скачивать файлы