Петр Чайковский - Щелкунчик (Опера Земпера в Дрездене) / Pyotr Tchaikovsky - The Nutcracker (Aaron S. Watkin, Jason Beechey, Vello Pаhn) [2011, Ballet, HDTVRip]


 

[Цитировать]

Щелкунчик / The Nutcracker
Год выпуска: 2011
Лейбл: UNITEL CLASSICA
Страна-производитель: Германия
Жанр: Ballet
Продолжительность: 01:34:19
Композитор: П.И. Чайковский
Дирижер: Vello Pаhn
Оркестр: Staatskapelle Dresden
Хор: Philharmonischer Kinderchor Dresden
Режиссер/Хореограф: Aaron S. Watkin, Jason Beechey по Мариусу Петипа
Исполнители:
Anna Merkulova - Marie,
István Simon - Nussknacker & Prinz,
Oleg Klymyuk - Drosselmeier,
Claudio Cangialosi - Mausekönig,
Yumiko Takeshima - Zuckerfee,
Jirí Bubenícek - Gemahl der Zuckerfee,
Julia Weiss - Schneekönigin,
Lydia Jahn - Marie als Kind,
Michel Philipp Weber - Fritz,
Isabella Taufkirch - Luise
Треклист: Балет в двух актах
Описание: Постановка балета Оперы Земпера придерживается традиционного варианта, но и в то же время в необычной трактовке преподносит сказку в контексте Дрезденского Рождества.
Доп. информация:
Премьера спектакля состоялась 26 ноября 2011.
Рип выполнен alex7, за что ему огромное спасибо.
Качество видео: HDTVRip
Формат/Контейнер: MKV
Видео кодек: H.264
Аудио кодек: AC3
Видео поток: MPEG4 Video (H264) 1280x720 25.00fps
Аудио поток: Dolby AC3 48000Hz stereo 384 kbps
семпл http://sendfile.su/915602

Mediainfo

Format : Matroska
File size : 6.85 GiB
Duration : 1h 34mn
Overall bit rate : 10.4 Mbps
Writing application : Lavf51.12.1
Writing library : Lavf51.12.1
Video
ID : 1
Format : AVC
Format/Info : Advanced Video Codec
Format profile : Baseline@L1.3
Format settings, CABAC : No
Format settings, ReFrames : 1 frame
Muxing mode : Container profile=Unknown@1.3
Codec ID : V_MPEG4/ISO/AVC
Duration : 1h 34mn
Bit rate : 9 812 Kbps
Width : 1 280 pixels
Height : 720 pixels
Display aspect ratio : 16:9
Frame rate : 25.000 fps
Color space : YUV
Chroma subsampling : 4:2:0
Bit depth : 8 bits
Scan type : Progressive
Bits/(Pixel*Frame) : 0.426
Stream size : 6.46 GiB (94%)
Audio
ID : 2
Format : AC-3
Format/Info : Audio Coding 3
Mode extension : CM (complete main)
Codec ID : A_AC3
Duration : 1h 34mn
Bit rate mode : Constant
Bit rate : 384 Kbps
Channel(s) : 2 channels
Channel positions : Front: L R
Sampling rate : 48.0 KHz
Bit depth : 16 bits
Stream size : 259 MiB (4%)
Language : English

Скриншоты




Показать сообщения:    

Текущее время: 03-Дек 14:40

Часовой пояс: UTC + 3


Вы не можете начинать темы
Вы не можете отвечать на сообщения
Вы не можете редактировать свои сообщения
Вы не можете удалять свои сообщения
Вы не можете голосовать в опросах
Вы не можете прикреплять файлы к сообщениям
Вы не можете скачивать файлы