Петр Чайковский - Щелкунчик (Балет Сан-Франциско) / Pyotr Tchaikovsky - The Nutcracker (Martin West, Helgi Tomasson) [2007, Ballet, HDTVRip]


 

[Цитировать]

Щелкунчик / The Nutcracker
Год выпуска: 2007
Лейбл: Brava
Страна-производитель: США
Жанр: Ballet
Продолжительность: 01:33:45
Композитор: П.И. Чайковский
Дирижер: Мартин Уэст / Martin West
Исполнители музыки: Хор и оркестр Балета Сан-Франциско
Режиссер/Хореограф: Хельги Томассон / Helgi Tomasson
Исполнители:
Damian Smith - Uncle Drosselmeyer,
Elizabeth Powell - Clara,
Davit Karapetyan - The Nutcracker Prince,
David Arce -King of the Mice,
Yuan Yuan Tan - Queen of Snow,
Pierre-François Vilanoba - King of Snow,
Vanessa Zahorian - Sugar Plum Fairy
Описание: Это визуально ошеломляющая постановка Щелкунчика, весьма изящна, каждая сцена является более захватывающей, чем предыдущая, вызывая к жизни всем хорошо известных и любимых персонажей со свежим блеском и убедительной оригинальностью. Сценический дизайн сказки выполнен на момент 1915 года - открытия в Сан-Франциско Всемирной выставки.
За балет «Щелкунчик» Хельги Томассон взялся в 2004 году. По его словам, это была самая трудная работа ввиду больших ожиданий публики от него, как хореографа, возглавляющего труппу 20 лет. Томассон создал полностью новую хореографию спектакля, оставив традиционным сюжет сказки. Девочка Клара в его версии совсем не танцует, но в конце спектакля посредством волшебного шкафа она превращается в Балерину, которая и исполняет классическое па де де с Принцем. В шкафу происходит не только превращение героинь, но и смена артисток. Балет был снят на видео в 2007 году, и в этой записи партию танцовщицы исполняет 23-летняя Мария Кочеткова, выпускница Московского хореографического училища, только что присоединившаяся к труппе Балета Сан-Франциско. Её партнёром является уроженец Еревана Давит Карапетян, окончивший Американскую школу балета.
Доп. информация: Рип и описание alex7, за что ему огромное спасибо.
Качество видео: HDTVRip
Формат/Контейнер: MKV
Видео кодек: H.264
Аудио кодек: AC3
Видео поток: MPEG4 Video (H264) 1280x720 25.00fps
Аудио поток: Dolby AC3 48000Hz 6ch 448kbps
семпл http://sendfile.su/915611

Mediainfo

Format : Matroska
File size : 4.24 GiB
Duration : 1h 33mn
Overall bit rate : 6 468 Kbps
Writing application : Lavf51.12.1
Writing library : Lavf51.12.1
Video
ID : 1
Format : AVC
Format/Info : Advanced Video Codec
Format profile : Baseline@L1.3
Format settings, CABAC : No
Format settings, ReFrames : 1 frame
Muxing mode : Container profile=Unknown@1.3
Codec ID : V_MPEG4/ISO/AVC
Duration : 1h 33mn
Bit rate : 5 892 Kbps
Width : 1 280 pixels
Height : 720 pixels
Display aspect ratio : 16:9
Frame rate : 25.000 fps
Color space : YUV
Chroma subsampling : 4:2:0
Bit depth : 8 bits
Scan type : Progressive
Bits/(Pixel*Frame) : 0.256
Stream size : 3.86 GiB (91%)
Audio
ID : 2
Format : AC-3
Format/Info : Audio Coding 3
Mode extension : CM (complete main)
Codec ID : A_AC3
Duration : 1h 33mn
Bit rate mode : Constant
Bit rate : 448 Kbps
Channel(s) : 6 channels
Channel positions : Front: L C R, Side: L R, LFE
Sampling rate : 48.0 KHz
Bit depth : 16 bits
Stream size : 300 MiB (7%)
Language : English

Скриншоты




Показать сообщения:    

Текущее время: 09-Дек 14:37

Часовой пояс: UTC + 3


Вы не можете начинать темы
Вы не можете отвечать на сообщения
Вы не можете редактировать свои сообщения
Вы не можете удалять свои сообщения
Вы не можете голосовать в опросах
Вы не можете прикреплять файлы к сообщениям
Вы не можете скачивать файлы