9 метров / 9 meter (Андерс Вальтер / Anders Walter) [2012, Дания, драма, короткий метр, HDRip] VO (datynet)


Статистика раздачи [Обновить пиров]
Размер:  241 MB   |    Зарегистрирован:  8 месяцев 28 дней   |    Скачан:  0 раз

Полного источника не было: Никогда

 
   
 
 
 

[Цитировать]

9 МЕТРОВ-9 meter- Год выпуска: 2012
Страна: Дания
Студии: M&M Productions ApS
Жанр: драма, короткий метр
Продолжительность: 00:16:32-Перевод: Mannenr
Озвучение: Любительское (одноголосое) (datynet)
Субтитры: английские (вшитые)
Оригинальная дорожка: нет-Режиссёр: Андерс Вальтер / Anders Walter
Сценарий: Андерс Вальтер
Композиторы: Нильс Кристиан Бэрентсен, Расмус Вальтер Хансен-В ролях: Бенджамин Габриельсен (Дэниель), Оливер Метлинг Сёндергор (Бубка), Томас Бальдус (отец), Кристине Альбек Бёрге (мать)-Шестнадцатилетний Дэниель навещает мать, которая находится в коматозном состоянии. Сын занимается прыжками в длину и верит, что мать реагирует на его новые рекорды. Однажды она подняла палец, когда он сообщил ей об очередном достижении. Но всему есть предел, и Дэниель не в силах достичь новых вершин, пока не узнает, что благодаря адреналину он сможет прыгнуть так далеко, что поставит мировой рекорд, но матери становится хуже, а врачи задумываются об отключении ее от приборов поддержания жизни. И в последней надежде на спасение матери Дэниель решается на отчаянный шаг.-Андерс Вальтер: «Мне всегда был интересен вопрос отношения к смерти детей и взрослых. Чтобы убежать от реальности или поменять точку зрения на жизнь, дети используют свою фантазию, но, взрослея, они теряют эту способность».-Короткометражка находилась в шорт-списке премии ОСКАР в 2013 году.- -Качество: HDRip
Формат: AVI
Видео-кодек: XviD
Аудио-кодек: MP3
Видео: XviD, 720x304, 25 fps, 1833 kbps, 0.335 bit/pixel
Аудио: MP3, 48 kHz, 2 ch, 192 kbps

MediaInfo

General
Complete name                  : D:\Translations\9 метров (9 meter, Denmark) (2012).avi
Format                         : AVI
Format/Info                    : Audio Video Interleave
File size                      : 241 MiB
Duration                       : 16mn 32s
Overall bit rate               : 2 035 Kbps
Writing application            : VirtualDubMod 1.5.10.2 (build 2540/release)
Writing library                : VirtualDubMod build 2540/release
[br]
Video
ID                             : 0
Format                         : MPEG-4 Visual
Format profile                 : Advanced Simple@L5
Format settings, BVOP          : Yes
Format settings, QPel          : No
Format settings, GMC           : No warppoints
Format settings, Matrix        : Default (H.263)
Codec ID                       : XVID
Codec ID/Hint                  : XviD
Duration                       : 16mn 32s
Bit rate                       : 1 833 Kbps
Width                          : 720 pixels
Height                         : 304 pixels
Display aspect ratio           : 2.35:1
Frame rate                     : 25.000 fps
Color space                    : YUV
Chroma subsampling             : 4:2:0
Bit depth                      : 8 bits
Scan type                      : Progressive
Compression mode               : Lossy
Bits/(Pixel*Frame)             : 0.335
Stream size                    : 217 MiB (90%)
Writing library                : XviD 1.2.1 (UTC 2008-12-04)
[br]
Audio
ID                             : 1
Format                         : MPEG Audio
Format version                 : Version 1
Format profile                 : Layer 3
Codec ID                       : 55
Codec ID/Hint                  : MP3
Duration                       : 16mn 32s
Bit rate mode                  : Constant
Bit rate                       : 192 Kbps
Channel count                  : 2 channels
Sampling rate                  : 44.1 KHz
Compression mode               : Lossy
Stream size                    : 22.7 MiB (9%)
Alignment                      : Split accross interleaves
Interleave, duration           : 40 ms (1.00 video frame)
Interleave, preload duration   : 500 ms

Скриншот с названием

Скриншоты


[teatrix.ru].t15289.torrent 
Торрент: Зарегистрирован [ 2016-03-14 00:48 ] · DF4B11CAA863817293818FC1E949A542C1CC493C

Скачать .torrent

Скачать

19 KB

Статус: проверено
Скачан: 0 раз
Размер: 241 MB
terms.php



Быстрый ответ

Имя:

      
Для отправки сообщений необходимо включить JavaScript
Показать сообщения:    

Текущее время: 11-Дек 14:59

Часовой пояс: UTC + 3


Вы можете начинать темы
Вы можете отвечать на сообщения
Вы не можете редактировать свои сообщения
Вы не можете удалять свои сообщения
Вы не можете голосовать в опросах
Вы не можете прикреплять файлы к сообщениям
Вы можете скачивать файлы