Настройщик / L'Accordeur (Оливье Трейнье / Olivier Treiner) [2010, Франция, Драма, короткий метр, SATRip] VO Александр Райдер


Статистика раздачи [Обновить пиров]
Размер:  206 MB   |    Зарегистрирован:  8 месяцев 25 дней   |    Скачан:  0 раз

Полного источника не было: Никогда

 
   
 
 
 

[Цитировать]

Настройщик / L'Accordeur
Страна: Франция
Жанр: Драма, короткий метр
Год выпуска: 2010
Продолжительность: 00:13:35
Перевод: одноголосый закадровый (Александр Райдер)
Cубтитры: нет
Режиссер:
Оливье Трейнье / Olivier Treiner
В ролях:
Грегуар Лепренс-Ренге, Даниель Лебрюн, Грегори Гадебуа, Эмелин Ге
Описание:
Адриан — молодой одаренный пианист. Он переживает психологическую травму после провала на конкурсе Бернштайна и решает стать настройщиком фортепиано. Вскоре Адриану приходит мысль притворяться слепым: теперь он может проникать в личное пространство своих клиентов. Эта тайна позволяет ему вновь почувствовать вкус к музыке. Адриан видит вещи, которые не должен видеть, и в один прекрасный день становится случайным свидетелем убийства…
Доп. информация:
Перевод фильма на русский язык - И. Рыбкина
Озвучивание и сведение звука - Александр Райдер
Качество видео: SATRip
Формат видео: AVI
Видео: 720x304 (2.37:1), 25 fps, XviD build 50 ~1920 kbps avg, 0.35 bit/pixel
Аудио: 48 kHz, MPEG Layer 3, 2 ch, 192.00 kbps

MediaInfo

Формат : AVI
Формат/Информация : Audio Video Interleave
Размер файла : 206 Мбайт
Продолжительность : 13 м.
Общий поток : 2123 Кбит/сек
Программа кодирования : VirtualDubMod 1.5.10.2 (build 2540/release)
Библиотека кодирования : VirtualDubMod build 2540/release
Видео
Идентификатор : 0
Формат : MPEG-4 Visual
Профиль формата : Advanced Simple@L5
Параметр BVOP формата : 1
Параметр QPel формата : Нет
Параметр GMC формата : Без точки перехода
Параметр матрицы формата : Default (H.263)
Идентификатор кодека : XVID
Идентификатор кодека/Подсказка : XviD
Продолжительность : 13 м.
Битрейт : 1921 Кбит/сек
Ширина : 720 пикселей
Высота : 304 пикселя
Соотношение сторон : 2,35:1
Частота кадров : 25,000 кадров/сек
Цветовое пространство : YUV
Субдискретизация насыщенности : 4:2:0
Битовая глубина : 8 бит
Тип развёртки : Прогрессивная
Метод сжатия : С потерями
Бит/(Пиксели*Кадры) : 0.351
Размер потока : 187 Мбайт (90%)
Библиотека кодирования : XviD 1.2.1 (UTC 2008-12-04)
Аудио
Идентификатор : 1
Формат : MPEG Audio
Версия формата : Version 1
Профиль формата : Layer 3
Идентификатор кодека : 55
Идентификатор кодека/Подсказка : MP3
Продолжительность : 13 м.
Вид битрейта : Постоянный
Битрейт : 192 Кбит/сек
Каналы : 2 канала
Частота : 48,0 КГц
Метод сжатия : С потерями
Размер потока : 18,7 Мбайт (9%)
Выравнивание : Соединение по промежуткам
Продолжительность промежутка : 40 мс. (1,00 видеокадр)
Время предзагрузки промежутка : 504 мс.
Библиотека кодирования : LAME3.98
Настройки программы : -m s -V 4 -q 0 -lowpass 18.6 -b 192

Скриншот c названием фильма

Скриншоты


[teatrix.ru].t15293.torrent 
Торрент: Зарегистрирован [ 2016-03-14 00:48 ] · 7331117B099654153005E6552F6026CDB797E7B9

Скачать .torrent

Скачать

17 KB

Статус: проверено
Скачан: 0 раз
Размер: 206 MB
terms.php



Быстрый ответ

Имя:

      
Для отправки сообщений необходимо включить JavaScript
Показать сообщения:    

Текущее время: 08-Дек 19:11

Часовой пояс: UTC + 3


Вы можете начинать темы
Вы можете отвечать на сообщения
Вы не можете редактировать свои сообщения
Вы не можете удалять свои сообщения
Вы не можете голосовать в опросах
Вы не можете прикреплять файлы к сообщениям
Вы можете скачивать файлы