Старый Новый год 2012 в театре Мастерская Петра Фоменко [2012 г., Капустник, TVRip] Московский театр Мастерская Петра Фоменко


Статистика раздачи [Обновить пиров]
Размер:  1.45 GB   |    Зарегистрирован:  8 месяцев 22 дня   |    Скачан:  0 раз

Полного источника не было: Никогда

Личеров:  3  [  0 KB/s  ]   Подробная статистика пиров
 
   
 
 
 

[Цитировать]

Старый Новый год 2012 в театре Мастерская Петра Фоменко Театр: Московский театр Мастерская Петра Фоменко.
Год выпуска: 2012.
Жанр: Капустник.
Продолжительность: 02:10:07.
Ведущий вечера: Иван Поповски.
Артисты:
Мадлен Джабраилова, Ксения Кутепова, Полина Кутепова, Галина Тюнина, Карэн Бадалов, Андрей Казаков, Илья Любимов, Томас Моцкус, Кирилл Пирогов, Тагир Рахимов, Рустэм Юскаев, Иван Поповски, Сергей Якубенко, Игорь Овчинников, Олег Нирян, Наталия Курдюбова, Анатолий Горячев, Наталья Мартынова, Юрий Буторин, Владимир Топцов, Лилия Егорова, Максим Литовченко, Михаил Крылов, Никита Тюнин, Вера Строкова, Елена Ворончихина, Моника Санторо, Мария Андреева, Иван Вакуленко, Игорь Войнаровский, Наджа Мэр, Дмитрий Рудков, Дмитрий Смирнов, Николай Орловский, Екатерина Смирнова, Дмитрий Захаров, Серафима Огарева, Виталий Метлин, Ирина Горбачева, Федор Малышев, Амбарцум Кабанян, Юрий Титов.
Описание:
Этот театральный капустник случился в Московском театре "Мастерская Петра Фоменко" 13 января 2012 года. Встречали старый Новый год.
Все было, как на спектаклях: артисты на сцене, а зрители в зале.
Веселилась вся труппа театра, и, конечно, было много приглашенных гостей.

Дополнительная информация:
Страна: Россия .

Релиз
Качество видео:...SATRip
Формат:.................AVI
Видео:..720x400 (1.80:1), 25 fps, XviD MPEG-4 ~1462 kbps avg, 0.20 bit/pixel
Аудио:..48 kHz, MPEG Layer 3, 2 ch, ~128.00 kbps avg

Отчет MediaInfo

General
Complete name : Staryi.novyi.god.v.teatre.Fomenko.2012.XviD.SATRip.fenixclub.avi
Format : AVI
Format/Info : Audio Video Interleave
File size : 1.45 GiB
Duration : 2h 10mn
Overall bit rate : 1 600 Kbps
Video
ID : 0
Format : MPEG-4 Visual
Format profile : Advanced Simple@L5
Format settings, BVOP : 2
Format settings, QPel : No
Format settings, GMC : No warppoints
Format settings, Matrix : Default (MPEG)
Codec ID : XVID
Codec ID/Hint : XviD
Duration : 2h 10mn
Bit rate : 1 462 Kbps
Width : 720 pixels
Height : 400 pixels
Display aspect ratio : 16:9
Frame rate : 25.000 fps
Color space : YUV
Chroma subsampling : 4:2:0
Bit depth : 8 bits
Scan type : Progressive
Compression mode : Lossy
Bits/(Pixel*Frame) : 0.203
Stream size : 1.33 GiB (91%)
Writing library : XviD 1.2.1 (UTC 2008-12-04)
Audio
ID : 1
Format : MPEG Audio
Format version : Version 1
Format profile : Layer 3
Mode : Joint stereo
Mode extension : MS Stereo
Codec ID : 55
Codec ID/Hint : MP3
Duration : 2h 10mn
Source duration : 2h 10mn
Bit rate mode : Constant
Bit rate : 128 Kbps
Channel count : 2 channels
Sampling rate : 48.0 KHz
Compression mode : Lossy
Stream size : 119 MiB (8%)
Alignment : Aligned on interleaves
Interleave, duration : 40 ms (1.00 video frame)
Writing library : LAME3.99.5

Скриншоты


Альтернативный хост


[teatrix.ru].t15299.torrent 
Торрент: Зарегистрирован [ 2016-03-14 00:48 ] · 235D4708597157AEDB04DC1F34C99B8E7D85F24F

Скачать .torrent

Скачать

15 KB

Статус: проверено
Скачан: 0 раз
Размер: 1.45 GB
terms.php



Быстрый ответ

Имя:

      
Для отправки сообщений необходимо включить JavaScript
Показать сообщения:    

Текущее время: 05-Дек 05:29

Часовой пояс: UTC + 3


Вы можете начинать темы
Вы можете отвечать на сообщения
Вы не можете редактировать свои сообщения
Вы не можете удалять свои сообщения
Вы не можете голосовать в опросах
Вы не можете прикреплять файлы к сообщениям
Вы можете скачивать файлы