Пуччини - Турандот / Puccini: Turandot (Susan Foster, Rosario La Spina, Andrea Licata, Graeme Murphy, Opera Australia) [2012, opera, BDRip-AVC]


 

[Цитировать]

Пуччини - Турандот / Puccini: Turandot
Год выпуска: 2012
Страна-производитель: Австралия
Жанр: opera
Продолжительность: 02:04:10
Язык: Итальянский
Субтитры: english, italian
Дирижер: Andrea Licata
Режиссер/Хореограф: Graeme Murphy
Исполнители:
Susan Foster (Turandot)
Rosario La Spina (Calaf)
Hyeseoung Kwon (Liù)
Jud Arthur (Timur)
Shane Lowrencev (A Mandarin)
Andrew Moran (Ping)
David Corcoran (Pong)
Graeme Macfarlane (Pang)
Benjamin Rasheed (Altoum)
Opera Australia Children’s Chorus
Opera Australia Chorus
Orchestra Victoria
Описание: In the 86-odd years since it premiered in 1926, the fortunes of Turandot, Puccini's unfinished final opera, have risen and fallen like so many romantic arpeggios. But if today the opera has established itself more-or-less permanently in operatic repertories around the world. With Rosario La Spina cast as Calaf, Susan Foster as the icy princess and Hyeseoung Kwon as the loyal slave girl Liù, the singing throughout is superlative. The choreography and direction of Graeme Murphy is visionary, add the set and costume designs of Kristian Fredrikson, and the lighting of John Drummond Montgomery and this production is glorious in its beauty.
Recorded live at the Arts Centre Melbourne, on 20 and 25 April 2012.
Качество видео: BDRip-AVC
Формат/Контейнер: MKV
Видео кодек: H.264
Аудио кодек: MP3
Видео поток: 960x536 29.97fps 2 184 Kbps
Аудио поток: MP3 48000Hz stereo 320 Kbps

MI

Format : Matroska
Format version : Version 2
File size : 2.17 GiB
Duration : 2h 4mn
Overall bit rate : 2 506 Kbps
Encoded date : UTC 2013-07-05 03:34:42
Writing application : mkvmerge v5.8.0 ('No Sleep / Pillow') built on Sep 2 2012 15:37:04
Writing library : libebml v1.2.3 + libmatroska v1.3.0
Video
ID : 1
Format : AVC
Format/Info : Advanced Video Codec
Format profile : High@L4.1
Format settings, CABAC : Yes
Format settings, ReFrames : 8 frames
Codec ID : V_MPEG4/ISO/AVC
Duration : 2h 4mn
Bit rate : 2 184 Kbps
Width : 960 pixels
Height : 536 pixels
Display aspect ratio : 16:9
Frame rate mode : Constant
Frame rate : 29.970 fps
Color space : YUV
Chroma subsampling : 4:2:0
Bit depth : 8 bits
Scan type : Progressive
Bits/(Pixel*Frame) : 0.142
Stream size : 1.85 GiB (85%)
Writing library : x264 core 125 r2208 d9d2288
Encoding settings : cabac=1 / ref=8 / deblock=1:0:0 / analyse=0x3:0x133 / me=umh / subme=9 / psy=1 / psy_rd=1.00:0.10 / mixed_ref=1 / me_range=24 / chroma_me=1 / trellis=2 / 8x8dct=1 / cqm=0 / deadzone=21,11 / fast_pskip=1 / chroma_qp_offset=-3 / threads=6 / lookahead_threads=1 / sliced_threads=0 / nr=0 / decimate=1 / interlaced=0 / bluray_compat=0 / constrained_intra=0 / bframes=3 / b_pyramid=2 / b_adapt=2 / b_bias=0 / direct=3 / weightb=1 / open_gop=0 / weightp=2 / keyint=250 / keyint_min=25 / scenecut=40 / intra_refresh=0 / rc_lookahead=60 / rc=2pass / mbtree=1 / bitrate=2184 / ratetol=1.0 / qcomp=0.60 / qpmin=0 / qpmax=69 / qpstep=4 / cplxblur=20.0 / qblur=0.5 / vbv_maxrate=17500 / vbv_bufsize=14000 / nal_hrd=none / ip_ratio=1.40 / aq=1:1.00
Default : Yes
Forced : No
Audio
ID : 2
Format : MPEG Audio
Format version : Version 1
Format profile : Layer 3
Codec ID : A_MPEG/L3
Codec ID/Hint : MP3
Duration : 2h 4mn
Bit rate mode : Constant
Bit rate : 320 Kbps
Channel(s) : 2 channels
Sampling rate : 48.0 KHz
Compression mode : Lossy
Stream size : 284 MiB (13%)
Writing library : LAME3.99r
Encoding settings : -m s -V 4 -q 0 -lowpass 20.5
Default : Yes
Forced : No

Скриншоты




Показать сообщения:    

Текущее время: 04-Дек 17:14

Часовой пояс: UTC + 3


Вы не можете начинать темы
Вы не можете отвечать на сообщения
Вы не можете редактировать свои сообщения
Вы не можете удалять свои сообщения
Вы не можете голосовать в опросах
Вы не можете прикреплять файлы к сообщениям
Вы не можете скачивать файлы