Музыка и поэзия [1985 г., Музыкально-поэтическая композиция, TVRip]


Статистика раздачи [Обновить пиров]
Размер:  293 MB   |    Зарегистрирован:  8 месяцев 27 дней   |    Скачан:  0 раз

Полного источника не было: Никогда

 
   
 
 
 

[Цитировать]

Музыка и поэзия Год выпуска: 1985.
Жанр: Музыкально-поэтическая композиция.
Продолжительность: 00:29:34.
Исполнители: Валерий Бабятинский (чтение), Валерий Кастельский (фортепьяно).
Описание:
Музыкально-поэтическая композиция. Стихи Е.Баратынского, П.Верлена, И.Бунина, А.Фета, А.Блока в исполнении Валерия Бабятинского. Произведения А.Скрябина исполняет В.Кастельский (фортепьяно).
Дополнительная информация:
Страна: СССР .
Выпущено: Главная редакция музыкальных программ ЦТ.

Трек-лист

Стихотворения:
Евгения Баратынского, Поля Верлена (перевод Валерия Брюсова), Ивана Бунина, Иннокентия Анненского, Шарля Бодлера (перевод Ариадны Эфрон), Афанасия Фета, Александра Блока.
Произведения Александра Скрябина:
1. Прелюдия и ноктюрн для левой руки. Соч. 9,
2. Четыре прелюдии. Coч. 11,
3. Этюд до диез минор. Соч. 42,
4. Две пьесы. Соч. 57.
Релиз
Качество видео:...TVRip
Формат:.................AVI
Видео:..688x512 (1.34:1), 25 fps, XviD MPEG-4 ~1245 kbps avg, 0.14 bit/pixel
Аудио:..44.100 kHz, MPEG Layer 3, 2 ch, ~128.00 kbps avg

Отчет MediaInfo

Общее
Полное имя : Muzyka.i.poeziya.1985.XviD.TVRip.fenixclub.avi
Format : AVI
Format/Info : Audio Video Interleave
File size : 293 MiB
Duration : 29mn 34s
Overall bit rate : 1 384 Kbps
Writing application : VirtualDubModRus 1.5.10.2 (build 2542/release)
Writing library : VirtualDubMod build 2542/release
Video
ID : 0
Format : MPEG-4 Visual
Format profile : Advanced Simple@L5
Format settings, BVOP : 2
Format settings, QPel : No
Format settings, GMC : No warppoints
Format settings, Matrix : Default (MPEG)
Muxing mode : Packed bitstream
Codec ID : XVID
Codec ID/Hint : XviD
Duration : 29mn 34s
Bit rate : 1 246 Kbps
Width : 688 pixels
Height : 512 pixels
Display aspect ratio : 4:3
Frame rate : 25.000 fps
Color space : YUV
Chroma subsampling : 4:2:0
Bit depth : 8 bits
Scan type : Progressive
Compression mode : Lossy
Bits/(Pixel*Frame) : 0.141
Stream size : 264 MiB (90%)
Writing library : XviD 1.2.1 (UTC 2008-12-04)
Audio
ID : 1
Format : MPEG Audio
Format version : Version 1
Format profile : Layer 3
Codec ID : 55
Codec ID/Hint : MP3
Duration : 29mn 34s
Bit rate mode : Constant
Bit rate : 128 Kbps
Channel(s) : 2 channels
Sampling rate : 44.1 KHz
Compression mode : Lossy
Stream size : 27.1 MiB (9%)
Alignment : Split accross interleaves
Interleave, duration : 40 ms (1.00 video frame)
Interleave, preload duration : 500 ms
Writing library : LAME3.99r
Encoding settings : -m s -V 4 -q 2 -lowpass 17 -b 128

Скриншоты

Альтернативный хост

[teatrix.ru].t15317.torrent 
Торрент: Зарегистрирован [ 2016-03-14 00:47 ] · 27D73AEF6C0D448D31AFBA1000E3A1044337B1C4

Скачать .torrent

Скачать

12 KB

Статус: проверено
Скачан: 0 раз
Размер: 293 MB
terms.php



Быстрый ответ

Имя:

      
Для отправки сообщений необходимо включить JavaScript
Показать сообщения:    

Текущее время: 10-Дек 09:59

Часовой пояс: UTC + 3


Вы можете начинать темы
Вы можете отвечать на сообщения
Вы не можете редактировать свои сообщения
Вы не можете удалять свои сообщения
Вы не можете голосовать в опросах
Вы не можете прикреплять файлы к сообщениям
Вы можете скачивать файлы