Встречи с любимыми актерами. Михаил Полицеймако [2012 г., Приложение к телеигре, SATRip]


Статистика раздачи [Обновить пиров]
Размер:  1.45 GB   |    Зарегистрирован:  8 месяцев 20 дней   |    Скачан:  0 раз

Полного источника не было: Никогда

Личеров:  3  [  0 KB/s  ]   Подробная статистика пиров
 
   
 
 
 

[Цитировать]

Встречи с любимыми актерами. Михаил ПолицеймакоЖанр: Приложение к телеигре.
Год выпуска: 2012.
Продолжительность: 02:25:03.
Автор и ведущий: Александр Динес.
Гость этой программы: актер Михаил Полицеймако.
Описание:
"Маркиза" - это разлекательно-познавательная телеигра, выходящая на Саратовском телевидении с 1993 года. Она состоит из двух частей. В первой части зрители в студии угадывают авторов литературных произведений, сами произведения или их персонажей. Во второй части аудитории требуется определить личность гостя, приглашенного в студию. Как правило, в роли гостя выступает кто-либо из известных актеров, который специально приезжает в Саратов.
В данной раздаче представлено приложение к телеигре - встреча с любимыми актерами. Гость программы - актер Михаил Полицеймако.
Михаил Полицеймако отвечает на вопросы зрителей и ведущего, рассказывает о новых театральных проектах, о работе с Марией Ароновой, о своих отношениях с театром на Таганке, где он вырос, о своем детстве, об учебе в ГИТИСе, о своем педагоге А. Бородине. Говорит о своем участии в новой программе на ТВ о здоровом образе жизни, о впечатлении от Саратова, о спектакле "Анна Франк", вспоминает о Е. Дворжецком, о близких друзьях и своих детях, рассказывает о книге Д. Глуховского, о своем отношении к творчеству Евгения Гришковца, о том, есть ли будущее у театра, о молодых режиссерах и таких мастерах, как Петр Фоменко и Анатолий Васильев, о ситкомах на ТВ, о театре "Квартет И" и др.

Дополнительная информация:
Страна: Россия .
Выпущено: Саратовское телевидение, © СМИ «Телеигра «Маркиза».
Съемка 2009 года.
Релиз
Огромное спасибо Доброму человеку за предоставленый материал!!!
Качество видео:...SATRip
Формат:.................AVI
Видео:..688x512 (1.34:1), 25 fps, DivX Codec 6.8 ~1297 kbps avg, 0.15 bit/pixel
Аудио:..48 kHz, MPEG Layer 3, 2 ch, ~128.00 kbps avg

Отчет MediaInfo

Общее
Полное имя : Vstrechi.s ljubimymi.aktjorami.Mixail.Policeimako.2009.DivX.SATRip.fenixclub.avi
Format : AVI
Format/Info : Audio Video Interleave
File size : 1.45 GiB
Duration : 2h 25mn
Overall bit rate : 1 435 Kbps
Video
ID : 0
Format : MPEG-4 Visual
Format settings, BVOP : No
Format settings, QPel : No
Format settings, GMC : No warppoints
Format settings, Matrix : Default (H.263)
Codec ID : DX50
Codec ID/Hint : DivX 5
Duration : 2h 25mn
Bit rate : 1 298 Kbps
Width : 688 pixels
Height : 512 pixels
Display aspect ratio : 4:3
Frame rate : 25.000 fps
Color space : YUV
Chroma subsampling : 4:2:0
Bit depth : 8 bits
Scan type : Progressive
Compression mode : Lossy
Bits/(Pixel*Frame) : 0.147
Stream size : 1.31 GiB (90%)
Writing library : DivX 6.8.0 (UTC 2007-12-04)
Audio
ID : 1
Format : MPEG Audio
Format version : Version 1
Format profile : Layer 3
Codec ID : 55
Codec ID/Hint : MP3
Duration : 2h 25mn
Source duration : 2h 25mn
Bit rate mode : Constant
Bit rate : 128 Kbps
Channel(s) : 2 channels
Sampling rate : 48.0 KHz
Compression mode : Lossy
Stream size : 133 MiB (9%)
Alignment : Aligned on interleaves
Interleave, duration : 40 ms (1.00 video frame)
Writing library : LAME3.99r
Encoding settings : -m s -V 4 -q 2 -lowpass 17 -b 128

Скриншоты

Альтернативный хост

[teatrix.ru].t15323.torrent 
Торрент: Зарегистрирован [ 2016-03-14 00:46 ] · 4058FAEA996A4057ED6A65A8D659D7B6DFCB20A4

Скачать .torrent

Скачать

15 KB

Статус: проверено
Скачан: 0 раз
Размер: 1.45 GB
terms.php



Быстрый ответ

Имя:

      
Для отправки сообщений необходимо включить JavaScript
Показать сообщения:    

Текущее время: 03-Дек 16:44

Часовой пояс: UTC + 3


Вы можете начинать темы
Вы можете отвечать на сообщения
Вы не можете редактировать свои сообщения
Вы не можете удалять свои сообщения
Вы не можете голосовать в опросах
Вы не можете прикреплять файлы к сообщениям
Вы можете скачивать файлы