70-летие школы-студии МХАТ [2013 г., капустник, SATRip] Школа-студия МХАТ


Статистика раздачи [Обновить пиров]
Размер:  1.09 GB   |    Зарегистрирован:  8 месяцев 27 дней   |    Скачан:  0 раз

Полного источника не было: Никогда

Личеров:  3  [  0 KB/s  ]   Подробная статистика пиров
 
   
 
 
 

[Цитировать]

70-летие школы-студии МХАТ Год выпуска: 2013.
Жанр: капустник.
Продолжительность: 01:07:53.
Описание:
На 70-летие знаменитой Школы-студии МХАТ собрались сотни ее знаменитых учеников.
Вечер устроили в жанре капустника. В любви к своей alma mater признавались даже заочно — Олег Басилашвили (телеграммой, потому что актер в этот вечер был «душой в МХАТ, а телом — в больнице») и Валентин Гафт (через стихи, которые зачитал Авангард Леонтьев). Но большинство звезд поздравили родную школу лично.
Сергей Безруков, взяв в руки арапник, с юмором предстал в роли барина, то карающего, то милующего «крепостных» — актеров своего Губернского театра. Константин Райкин привел с собой целых два коллектива — свой колледж и свой театр.
Не забыли на вечере и артистические династии, которых в истории Школы-студии было немало. Под музыку из фильма «Москва слезам не верит» на сцену вышло трио в составе: Владимир и Юлия Меньшовы и Вера Алентова. Кстати, сын Юлии Андрей уже учится в 10 классе. По словам телеведущей, если парень изберет артистическую стезю и тем более надумает поступать в Школу-студию МХАТ, она препятствовать этому не станет.
Общалась с родственником и Светлана Крючкова — только не с настоящим, а с киношным. Весь вечер она называла сынком Александра Семчева, с которым «породнилась» благодаря сериалу «Ликвидация».
В этот ностальгический вечер ни в зале, ни на сцене никто не мерился званиями и количеством ролей. Константин Хабенский с удовольствием выступил в музыкальном номере всего с одной фразой. А Владимир Машков вместе с актерами, с которыми репетирует спектакль «№13», устроил шуточный забег по сцене МХАТ — как будто он искал среди нынешних студентов Школы-студии исполнителя главной роли. Право сказать почетное слово предоставили Маргарите Анастасьевой — выпускнице первого выпуска, получившей в 1947 году диплом студии за номером 1.

Дополнительная информация:
Страна: Россия .

Музыка: D. Shaik, S. Sater, Евгений Беркович, Петр Чайковский.
Релиз
Рип sharky.
Качество видео:...SATRip
Формат:.................AVI
Видео:..704x400 (1.76:1), 25 fps, DivX Codec 5.x or 6.x ~2162 kbps avg, 0.31 bit/pixel
Аудио:..44.100 kHz, MPEG Layer 3, 2 ch, ~128.00 kbps avg

Отчет MI

General
Complete name : 70-letie.shkoly-studii.MHAT.2013.DivX.SATRip.fenixclub.avi
Format : AVI
Format/Info : Audio Video Interleave
File size : 1.09 GiB
Duration : 1h 7mn
Overall bit rate : 2 301 Kbps
Video
ID : 0
Format : MPEG-4 Visual
Format settings, BVOP : 1
Format settings, QPel : No
Format settings, GMC : No warppoints
Format settings, Matrix : Default (H.263)
Muxing mode : Packed bitstream
Codec ID : DX50
Codec ID/Hint : DivX 5
Duration : 1h 7mn
Bit rate : 2 163 Kbps
Width : 704 pixels
Height : 400 pixels
Display aspect ratio : 16:9
Frame rate : 25.000 fps
Color space : YUV
Chroma subsampling : 4:2:0
Bit depth : 8 bits
Scan type : Progressive
Compression mode : Lossy
Bits/(Pixel*Frame) : 0.307
Stream size : 1.03 GiB (94%)
Title : Video
Writing library : DivX 3013
Audio
ID : 1
Format : MPEG Audio
Format version : Version 1
Format profile : Layer 3
Codec ID : 55
Codec ID/Hint : MP3
Duration : 1h 7mn
Bit rate mode : Constant
Bit rate : 128 Kbps
Channel(s) : 2 channels
Sampling rate : 44.1 KHz
Compression mode : Lossy
Stream size : 62.2 MiB (6%)
Alignment : Split accross interleaves
Interleave, duration : 40 ms (1.00 video frame)
Interleave, preload duration : 500 ms
Title : Audio

Скриншоты


Альтернативный хост


[teatrix.ru].t15330.torrent 
Торрент: Зарегистрирован [ 2016-03-14 00:46 ] · 880357D0AAD7F8ACC23C7CD0F162C604ED63079D

Скачать .torrent

Скачать

11 KB

Статус: проверено
Скачан: 0 раз
Размер: 1.09 GB
terms.php



Быстрый ответ

Имя:

      
Для отправки сообщений необходимо включить JavaScript
Показать сообщения:    

Текущее время: 10-Дек 21:32

Часовой пояс: UTC + 3


Вы можете начинать темы
Вы можете отвечать на сообщения
Вы не можете редактировать свои сообщения
Вы не можете удалять свои сообщения
Вы не можете голосовать в опросах
Вы не можете прикреплять файлы к сообщениям
Вы можете скачивать файлы