Жорж Бизе - Кармен / Georges Bizet - Carmen (Julia Migenes-Johnson, Placido Domingo, Ruggero Raimondi, Faith Esham, Lorin Maazel, Francesco Rosi) [1984, opera-film, HDRip-AVC]


 

[Цитировать]

Жорж Бизе - Кармен / Georges Bizet - Carmen
Год выпуска: 1984
Жанр: opera-film
Продолжительность: 02:35:09
Язык: французский
Субтитры: ru, en, fr, gre встроенные отключаемые
Режиссер: Франческо Рози / Francesco Rosi
Дирижер:Lorin Maazel
Исполнители:
Carmen - Julia Migenes-Johnson
Don José - Plácido Domingo
Escamillo - Ruggero Raimondi
Micaëla - Faith Esham
Moralès - François Le Roux
Zuniga - John Paul Bogart
Mercédès - Susan Daniel
Frasquita - Lilian Watson
Zuniga - John Paul Bogart
Le Dancaïre - Jean-Philippe Lafont
Le Remendado - Gérard Garino
Lillas Pastia - Julien Guiomar
Le Guide - Accursio Di Leo
La Manuelita - Maria Campano
Double d’Escamillo dans les scènes de corrida - Santiago Lopez
Orchestre National de France
Chœurs et Maîtrise de Radio France
Chef des chœurs - Jacques Jouineau
Chef de la maîtrise - Henri Farge
Описание: Ce film a été tourné en Espagne, en décors naturels, dans la province d’Andalousie et notamment à Ronda, Carmona et Séville.
Фильм снят в Испании без использования декораций, на фоне натуральных пейзажей провинции Андалузия в окрестностях Ронды, Кармоны и Севильи.
Предыдущие раздачи: DVD9-NTSC, DVD5-PAL, DVD5-PAL (восстановленная тональность), DVDRIP-AVI(нарушено соотношение сторон кадра)
Качество видео: HDRip-AVC
Формат/Контейнер: MKV
Видео кодек: H.264
Аудио кодек: DTS
Видео поток: 900x540 23.976fps 2147 Kbps
Аудио поток: DTS 48000Hz 6ch 755 Kbps

MI

Format : Matroska
Format version : Version 4 / Version 2
File size : 3.21 GiB
Duration : 2h 35mn
Overall bit rate : 2 960 Kbps
Encoded date : UTC 2014-03-05 07:02:56
Writing application : mkvmerge v6.1.0 ('Old Devil') built on Mar 4 2013 09:10:42
Writing library : libebml v1.3.0 + libmatroska v1.4.0
Video
ID : 1
Format : AVC
Format/Info : Advanced Video Codec
Format profile : High@L4.1
Format settings, CABAC : Yes
Format settings, ReFrames : 8 frames
Codec ID : V_MPEG4/ISO/AVC
Duration : 2h 35mn
Bit rate : 2 147 Kbps
Width : 900 pixels
Height : 540 pixels
Display aspect ratio : 1.667
Frame rate mode : Constant
Frame rate : 23.976 fps
Color space : YUV
Chroma subsampling : 4:2:0
Bit depth : 8 bits
Scan type : Progressive
Bits/(Pixel*Frame) : 0.184
Stream size : 2.33 GiB (73%)
Writing library : x264 core 130 r2273 b3065e6
Encoding settings : cabac=1 / ref=8 / deblock=1:-1:-1 / analyse=0x3:0x133 / me=umh / subme=9 / psy=1 / psy_rd=1.00:0.10 / mixed_ref=1 / me_range=24 / chroma_me=1 / trellis=2 / 8x8dct=1 / cqm=0 / deadzone=21,11 / fast_pskip=1 / chroma_qp_offset=-3 / threads=6 / lookahead_threads=1 / sliced_threads=0 / nr=0 / decimate=1 / interlaced=0 / bluray_compat=0 / constrained_intra=0 / bframes=3 / b_pyramid=2 / b_adapt=2 / b_bias=0 / direct=1 / weightb=1 / open_gop=0 / weightp=2 / keyint=250 / keyint_min=23 / scenecut=40 / intra_refresh=0 / rc_lookahead=60 / rc=crf / mbtree=1 / crf=19.5 / qcomp=0.60 / qpmin=0 / qpmax=69 / qpstep=4 / ip_ratio=1.40 / aq=1:1.00
Default : Yes
Forced : No
Audio
ID : 2
Format : DTS
Format/Info : Digital Theater Systems
Mode : 16
Format settings, Endianness : Big
Codec ID : A_DTS
Duration : 2h 35mn
Bit rate mode : Constant
Bit rate : 755 Kbps
Channel(s) : 6 channels
Channel positions : Front: L C R, Side: L R, LFE
Sampling rate : 48.0 KHz
Bit depth : 24 bits
Compression mode : Lossy
Stream size : 838 MiB (25%)
Language : French
Default : Yes
Forced : No
Text #1
ID : 3
Format : UTF-8
Codec ID : S_TEXT/UTF8
Codec ID/Info : UTF-8 Plain Text
Language : Russian
Default : Yes
Forced : No
Text #2
ID : 4
Format : UTF-8
Codec ID : S_TEXT/UTF8
Codec ID/Info : UTF-8 Plain Text
Language : English
Default : No
Forced : No
Text #3
ID : 5
Format : VobSub
Muxing mode : zlib
Codec ID : S_VOBSUB
Codec ID/Info : The same subtitle format used on DVDs
Language : French
Default : No
Forced : No
Text #4
ID : 6
Format : UTF-8
Codec ID : S_TEXT/UTF8
Codec ID/Info : UTF-8 Plain Text
Language : Greek
Default : No
Forced : No

Скриншоты




Показать сообщения:    

Текущее время: 09-Дек 02:58

Часовой пояс: UTC + 3


Вы не можете начинать темы
Вы не можете отвечать на сообщения
Вы не можете редактировать свои сообщения
Вы не можете удалять свои сообщения
Вы не можете голосовать в опросах
Вы не можете прикреплять файлы к сообщениям
Вы не можете скачивать файлы