Течет река. Вечер к 100-летию со дня рождения Виктора Розова (Николай Скорик, Татьяна Александрова) [2013 г., Творческий вечер, SATRip] Российский академический молодежный театр


Статистика раздачи [Обновить пиров]
Размер:  1.36 GB   |    Зарегистрирован:  8 месяцев 26 дней   |    Скачан:  0 раз

Полного источника не было: Никогда

Личеров:  3  [  0 KB/s  ]   Подробная статистика пиров
 
   
 
 
 

[Цитировать]

Течет река. Вечер к 100-летию со дня рождения Виктора Розова Название театра: Российский академический молодежный театр.
Год выпуска: 2013.
Жанр: Творческий вечер.
Продолжительность: 01:39:02.
Режиссеры: Николай Скорик, Татьяна Александрова.
В вечере принимают участие:
Александра Аронс, Денис Баландин, Юльен Балмусов, Алексей Блохин, Татьяна Веселкина, Александр Гришин, Вера Зотова, Илья Исаев, Вениамин Жуков, Рамиля Искандер, Дмитрий Кривощапов, Виталий Круглик, Диана Морозова, Николай Мохнаткин, Вячеслав Николаев, Максим Олейников, Виктор Панченко, Сергей Печенкин, Владислав Погиба, Анастасия Прокофьева, Александра Розовская, Антон Савватимов, Анастасия Скорик, Иван Скорик, Ирина Таранник, Виталий Тимашков, Нелли Уварова, Денис Фомин, Наталья Чернявская, Татьяна Шатилова, Екатерина Шипулина.
Описание:
Вечер, посвященный 100-летию со дня рождения драматурга Виктора Сергеевича Розова.
Именно на сцене РАМТа, тогда Центрального детского театра, была поставлена первая пьеса драматурга, и увидели свет многие его произведения. На вечере будут сыграны отрывки из пьес драматурга, но, как отмечают организаторы, главным действующим лицом станет сам Виктор Сергеевич в его воспоминаниях, размышлениях о жизни и о театре.
"Мы решили, что в наше время, когда повсюду пичкают разными ток-шоу, надо предложить зрителям послушать мудрые мысли человека, который может поделиться с нами, - сказал режиссер вечера Николай Скорик. - Поэтому решили, что главным действующим лицом будет сам Виктор Сергеевич Розов. Он предстанет "живым" в записях фрагментов из его интервью и редких семейных записей, которые будут представлены впервые. Прозвучат высказывания из его книг, записных книжек и так далее. Нам кажется, что это сделает наш вечер-посвящение Виктору Сергеевичу не похожим на многие юбилейные торжества".

Дополнительная информация:
Страна: Россия .
Выпущено: Российский академический молодежный театр, © телеканал "Театр".
Режиссер-постановщик вечера: Николай Скорик.
Автор сценария: Наталья Каминская.
Художник: Станислав Бенедиктов.
Музыкальный руководитель: Максим Олейников.
Художник по свету: Сергей Скорнецкий.
Режиссер телеверсии: Татьяна Александрова.
Операторы: Сергей Стариков, Михаил Кожевников, Олег Теодорович, Антон Чуванов.

Релиз
Огромное спасибо Доброму человеку за предоставленый материал!!!
Качество видео:...SATRip
Формат:.................AVI
Видео:..720x400 (1.80:1), 25 fps, DivX Codec 6.8 ~1824 kbps avg, 0.25 bit/pixel
Аудио:..48 kHz, MPEG Layer 3, 2 ch, ~128.00 kbps avg

Отчет MI

General
Complete name : Techet.reka.Rozov.2013.XviD.SATRip.fenixclub.avi
Format : AVI
Format/Info : Audio Video Interleave
File size : 1.36 GiB
Duration : 1h 39mn
Overall bit rate : 1 963 Kbps
Writing application : VirtualDubModRus 1.5.10.2 (build 2542/release)
Writing library : VirtualDub build 34753/release
Video
ID : 0
Format : MPEG-4 Visual
Format settings, BVOP : No
Format settings, QPel : No
Format settings, GMC : No warppoints
Format settings, Matrix : Default (H.263)
Codec ID : DX50
Codec ID/Hint : DivX 5
Duration : 1h 39mn
Bit rate : 1 825 Kbps
Width : 720 pixels
Height : 400 pixels
Display aspect ratio : 16:9
Frame rate : 25.000 fps
Color space : YUV
Chroma subsampling : 4:2:0
Bit depth : 8 bits
Scan type : Progressive
Compression mode : Lossy
Bits/(Pixel*Frame) : 0.253
Stream size : 1.26 GiB (93%)
Writing library : DivX 6.8.0 (UTC 2007-12-04)
Audio
ID : 1
Format : MPEG Audio
Format version : Version 1
Format profile : Layer 3
Mode : Joint stereo
Mode extension : MS Stereo
Codec ID : 55
Codec ID/Hint : MP3
Duration : 1h 39mn
Bit rate mode : Constant
Bit rate : 128 Kbps
Channel(s) : 2 channels
Sampling rate : 48.0 KHz
Compression mode : Lossy
Delay relative to video : 8ms
Stream size : 90.7 MiB (7%)
Alignment : Split accross interleaves
Interleave, duration : 40 ms (1.00 video frame)
Interleave, preload duration : 500 ms

Скриншоты

Альтернативный хост

[teatrix.ru].t15342.torrent 
Торрент: Зарегистрирован [ 2016-03-14 00:46 ] · 219EF7D61F6D0AC152DD0F7DD4BD9FF339268EBD

Скачать .torrent

Скачать

14 KB

Статус: проверено
Скачан: 0 раз
Размер: 1.36 GB
terms.php



Быстрый ответ

Имя:

      
Для отправки сообщений необходимо включить JavaScript
Показать сообщения:    

Текущее время: 09-Дек 20:31

Часовой пояс: UTC + 3


Вы можете начинать темы
Вы можете отвечать на сообщения
Вы не можете редактировать свои сообщения
Вы не можете удалять свои сообщения
Вы не можете голосовать в опросах
Вы не можете прикреплять файлы к сообщениям
Вы можете скачивать файлы