Юбилей театра Мастерская П.Фоменко. XX лет (Владимир Бровкин) [2014 г., капустник, WEB-DLRip] Московский театр "Мастерская П. Фоменко"


Статистика раздачи [Обновить пиров]
Размер:  1.46 GB   |    Зарегистрирован:  8 месяцев 28 дней   |    Скачан:  0 раз

Полного источника не было: Никогда

Личеров:  3  [  0 KB/s  ]   Подробная статистика пиров
 
   
 
 
 

[Цитировать]

Юбилей театра Мастерская П.Фоменко. XX летНазвание театра: Московский театр "Мастерская П. Фоменко".
Год выпуска: 2014.
Жанр: капустник.
Продолжительность: 02:39:52.
Видеорежиссер: Владимир Бровкин.
Гости:
Юлий Ким, Елена Камбурова, Татьяна и Сергей Никитины.
Участники:
Полина Агуреева, Мадлен Джабраилова, Ксения Кутепова, Полина Кутепова, Галина Тюнина, Карэн Бадалов, Андрей Казаков, Илья Любимов, Томас Моцкус, Кирилл Пирогов, Тагир Рахимов, Рустэм Юскаев, Евгений Каменькович, Иван Поповски, Олег Любимов, Сергей Якубенко, Борис Горбачев, Игорь Овчинников, Евгений Цыганов, Алексей Колубков, Олег Нирян, Наталия Курдюбова, Анатолий Горячев, Наталья Мартынова, Юрий Буторин, Галина Кашковская, Владимир Топцов, Валюс Тертелис, Иван Верховых, Оксана Глоба, Лилия Егорова, Анн-Доминик Кретта, Максим Литовченко, Михаил Крылов, Никита Тюнин, Вера Строкова, Елена Ворончихина, Василий Фирсов, Моника Санторо, Мария Андреева, Иван Вакуленко, Игорь Войнаровский, Наджа Мэр, Дмитрий Рудков, Дмитрий Смирнов, Роза Шмуклер, Николай Орловский, Екатерина Смирнова, Дмитрий Захаров, Елена Лукьянчикова, Серафима Огарева, Ирина Горбачева, Федор Малышев, Амбарцум Кабанян, Мария Козяр, Владимир Свирский, Юрий Титов.
Описание:
В театре "Мастерская П.Фоменко" прошел вечер, посвященный 20-летию театра.
Режиссер Петр Фоменко 20 лет назад основал свой театр вместе с учениками и единомышленниками. Поначалу у молодого коллектива не было ни сцены, ни гримерок, ни стабильного финансирования. В собственное здание театр въехал только в 1999 году, а еще через несколько лет переехал в новый дом, построенный при участии артистов. На набережной Тараса Шевченко было создано уникальное сценическое пространство.
Первый сезон, который прошел без Петра Фоменко (его не стало летом прошлого года), был непростым для театра. Коллектив решил продолжить следовать принципам, которые заложил мастер. В прошлом сезоне артисты представили четыре новые постановки. Осенью пройдут еще четыре премьеры.

Дополнительная информация:
Страна: Россия .
Выпущено: © Московский театр "Мастерская П. Фоменко", © НП "Культу.Ru!".
Оператор-постановщик: Владимир Иванов.
Звукооператор: Андрей Кауппонен.
Концерт состоялся 13 января 2014 года.

Релиз
Качество видео:...WEB-DLRip
Формат:.................AVI
Видео:..720x400 (1.80:1), 25 fps, XviD MPEG-4 ~1166 kbps avg, 0.16 bit/pixel
Аудио:..48 kHz, MPEG Layer 3, 2 ch, ~128.00 kbps avg

Отчет MI

General
Complete name : XX.let.teatru.Masterskaya.Fomenko.2014.XviD.WEB-DLRip.fenixclub.avi
Format : AVI
Format/Info : Audio Video Interleave
File size : 1.46 GiB
Duration : 2h 39mn
Overall bit rate : 1 304 Kbps
Writing application : VirtualDubModRus 1.5.10.2 (build 2542/release)
Writing library : VirtualDub build 34753/release
Video
ID : 0
Format : MPEG-4 Visual
Format profile : Advanced Simple@L5
Format settings, BVOP : 2
Format settings, QPel : No
Format settings, GMC : No warppoints
Format settings, Matrix : Default (MPEG)
Muxing mode : Packed bitstream
Codec ID : XVID
Codec ID/Hint : XviD
Duration : 2h 39mn
Bit rate : 1 167 Kbps
Width : 720 pixels
Height : 400 pixels
Display aspect ratio : 16:9
Frame rate : 25.000 fps
Color space : YUV
Chroma subsampling : 4:2:0
Bit depth : 8 bits
Scan type : Progressive
Compression mode : Lossy
Bits/(Pixel*Frame) : 0.162
Stream size : 1.30 GiB (89%)
Writing library : XviD 1.2.1 (UTC 2008-12-04)
Audio
ID : 1
Format : MPEG Audio
Format version : Version 1
Format profile : Layer 3
Mode : Joint stereo
Mode extension : MS Stereo
Codec ID : 55
Codec ID/Hint : MP3
Duration : 2h 39mn
Bit rate mode : Constant
Bit rate : 128 Kbps
Channel(s) : 2 channels
Sampling rate : 48.0 KHz
Compression mode : Lossy
Stream size : 146 MiB (10%)
Alignment : Split accross interleaves
Interleave, duration : 40 ms (1.00 video frame)
Interleave, preload duration : 500 ms
Writing library : LAME3.99.5

Скриншоты


Альтернативный хост


[teatrix.ru].t15344.torrent 
Торрент: Зарегистрирован [ 2016-03-14 00:46 ] · 678651591A686D5CB906B668B872CC8378E55D2F

Скачать .torrent

Скачать

15 KB

Статус: проверено
Скачан: 0 раз
Размер: 1.46 GB
terms.php



Быстрый ответ

Имя:

      
Для отправки сообщений необходимо включить JavaScript
Показать сообщения:    

Текущее время: 11-Дек 07:08

Часовой пояс: UTC + 3


Вы можете начинать темы
Вы можете отвечать на сообщения
Вы не можете редактировать свои сообщения
Вы не можете удалять свои сообщения
Вы не можете голосовать в опросах
Вы не можете прикреплять файлы к сообщениям
Вы можете скачивать файлы