Владимир Маяковский. Страницы творчества [1977 г., Литературные чтения, TVRip]


Статистика раздачи [Обновить пиров]
Размер:  698 MB   |    Зарегистрирован:  8 месяцев 22 дня   |    Скачан:  1 раз

Полного источника не было: 3 месяца 24 дня

Личеров:  3  [  0 KB/s  ]   Подробная статистика пиров
 
   
 
 
 

[Цитировать]

Владимир Маяковский. Страницы творчества Год выпуска: 1977.
Жанр: Литературные чтения.
Продолжительность: 00:50:44.
Стихи и воспоминания Владимира Маяковского читает заслуженный артист РСФСР Василий Лановой.
"Стихи о Советском паспорте" читает Владимир Яхонтов.
Описание:
Передача о творчестве поэта Владимира Маяковского. В передаче использованы воспоминания матери поэта Александры Алексеевны Маяковской, Корнея Ивановича Чуковского, Игоря Владимира Ильинского, Ладо Гудиашвили, Алексея Александровича Суркова.
Дополнительная информация:
Страна: СССР .
Выпущено: Главная редакция литературно-драматических программ ЦТ.
В передаче использованы фрагменты из фильмов:
"Чукоккала",
"Маяковский с нами",
"Живой Маяковский",
"Маяковский делает выставку",
"Ильинский о Маяковском".
Релиз
Качество видео:...TVRip
Формат:.................AVI
Видео:..640x480 (1.33:1), 25 fps, XviD MPEG-4 ~1784 kbps avg, 0.23 bit/pixel
Аудио:..44.100 kHz, MPEG Layer 3, 2 ch, ~128.00 kbps avg

Отчет MI

General
Complete name : Vladimir.Mayakovskij.Stranicy.tvorchestva.1977.XviD.TVRip.fenixclub.avi
Format : AVI
Format/Info : Audio Video Interleave
File size : 698 MiB
Duration : 50mn 44s
Overall bit rate : 1 923 Kbps
Writing application : VirtualDubModRus 1.5.10.2 (build 2542/release)
Writing library : VirtualDubMod build 2542/release
Video
ID : 0
Format : MPEG-4 Visual
Format profile : Advanced Simple@L5
Format settings, BVOP : 2
Format settings, QPel : No
Format settings, GMC : No warppoints
Format settings, Matrix : Default (MPEG)
Muxing mode : Packed bitstream
Codec ID : XVID
Codec ID/Hint : XviD
Duration : 50mn 44s
Bit rate : 1 785 Kbps
Width : 640 pixels
Height : 480 pixels
Display aspect ratio : 4:3
Frame rate : 25.000 fps
Color space : YUV
Chroma subsampling : 4:2:0
Bit depth : 8 bits
Scan type : Progressive
Compression mode : Lossy
Bits/(Pixel*Frame) : 0.232
Stream size : 648 MiB (93%)
Writing library : XviD 1.2.1 (UTC 2008-12-04)
Audio
ID : 1
Format : MPEG Audio
Format version : Version 1
Format profile : Layer 3
Codec ID : 55
Codec ID/Hint : MP3
Duration : 50mn 44s
Bit rate mode : Constant
Bit rate : 128 Kbps
Channel(s) : 2 channels
Sampling rate : 44.1 KHz
Compression mode : Lossy
Stream size : 46.5 MiB (7%)
Alignment : Split accross interleaves
Interleave, duration : 40 ms (1.00 video frame)
Interleave, preload duration : 500 ms
Writing library : LAME3.99r
Encoding settings : -m s -V 4 -q 2 -lowpass 17 -b 128

Скриншоты

Альтернативный хост

[teatrix.ru].t15345.torrent 
Торрент: Зарегистрирован [ 2016-03-14 00:46 ] · 27C8A256217CFBA6A26BA7BF5D5B51D064C635B3

Скачать .torrent

Скачать

14 KB

Статус: проверено
Скачан: 1 раз
Размер: 698 MB
terms.php



Быстрый ответ

Имя:

      
Для отправки сообщений необходимо включить JavaScript
Показать сообщения:    

Текущее время: 05-Дек 05:32

Часовой пояс: UTC + 3


Вы можете начинать темы
Вы можете отвечать на сообщения
Вы не можете редактировать свои сообщения
Вы не можете удалять свои сообщения
Вы не можете голосовать в опросах
Вы не можете прикреплять файлы к сообщениям
Вы можете скачивать файлы