Соловей (Сергей Сидоренко) [2013 г., Литературно-музыкальная композиция, SATRip] Из цикла "Сказки с оркестром"


Статистика раздачи [Обновить пиров]
Размер:  605 MB   |    Зарегистрирован:  8 месяцев 28 дней   |    Скачан:  0 раз

Полного источника не было: Никогда

Личеров:  3  [  0 KB/s  ]   Подробная статистика пиров
 
   
 
 
 

[Цитировать]

Соловей Из цикла "Сказки с оркестром".
Год выпуска: 2013.
Жанр: Литературно-музыкальная композиция.
Продолжительность: 00:41:43.
Режиссер: Сергей Сидоренко.
Сказку читает: Евгения Добровольская.
Описание:
Всемирно известный сюжет, рассказанный великим сказочником Гансом Христианом Андерсеном.
Дополнительная информация:
Страна: Россия .
Выпущено: © ГТРК "Культура".
По сказке Ганса Христиана Андерсена.
Автор музыкально-литературной композиции: Ксения Суетина.
Запись из концертного зала имени Чайковского.
Академический симфонический оркестр Московской филармонии.
Художественный руководитель и главный дирижер:
Юрий Симонов.
Дирижер: Димитрис Ботинис.
Ансамбль солистов Московской филармонии "Мадригал".
В композиции звучат фрагменты из произведений:
анонимных мастеров XVI-XVII вв., Камиля Сен-Санса, Игоря Стравинского.
Концерт состоялся 24.03.2013 года.
Оператор-постановщик: Евгений Тимохин.

Трансляция ГТРК "Культура" в 13:30 16.02.2014 г.
Релиз
Рип lesik689 .
Большое спасибо художника с кинозала
lidakalju за создание красивого постера.

Качество видео:...SATRip
Формат:.................AVI
Видео:..720x400 (1.80:1), 25 fps, XviD MPEG-4 ~1825 kbps avg, 0.25 bit/pixel
Аудио:..48 kHz, AC3 Dolby Digital, 2/0 (L,R) ch, ~192 kbps

Отчет MI

General
Complete name : Solovey.2013.XviD.SATRip.fenixclub.avi
Format : AVI
Format/Info : Audio Video Interleave
File size : 605 MiB
Duration : 41mn 43s
Overall bit rate : 2 028 Kbps
Writing application : VirtualDubMod 1.5.10.2 (build 2542/release)
Writing library : VirtualDubMod build 2542/release
Video
ID : 0
Format : MPEG-4 Visual
Format profile : Advanced Simple@L5
Format settings, BVOP : 2
Format settings, QPel : Yes
Format settings, GMC : No warppoints
Format settings, Matrix : Default (MPEG)
Muxing mode : Packed bitstream
Codec ID : XVID
Codec ID/Hint : XviD
Duration : 41mn 43s
Bit rate : 1 826 Kbps
Width : 720 pixels
Height : 400 pixels
Display aspect ratio : 5:4
Original display aspect ratio : 16:9
Frame rate : 25.000 fps
Color space : YUV
Chroma subsampling : 4:2:0
Bit depth : 8 bits
Scan type : Progressive
Compression mode : Lossy
Bits/(Pixel*Frame) : 0.254
Stream size : 545 MiB (90%)
Writing library : XviD 64
Audio
ID : 1
Format : AC-3
Format/Info : Audio Coding 3
Mode extension : CM (complete main)
Format settings, Endianness : Big
Codec ID : 2000
Duration : 41mn 43s
Bit rate mode : Constant
Bit rate : 192 Kbps
Channel(s) : 2 channels
Channel positions : Front: L R
Sampling rate : 48.0 KHz
Bit depth : 16 bits
Compression mode : Lossy
Stream size : 57.3 MiB (9%)
Alignment : Aligned on interleaves
Interleave, duration : 40 ms (1.00 video frame)
Interleave, preload duration : 512 ms

Скриншоты


Альтернативный хост


[teatrix.ru].t15354.torrent 
Торрент: Зарегистрирован [ 2016-03-14 00:45 ] · 5625E07BE1EDA1556887BD7AEB8186D509321CDE

Скачать .torrent

Скачать

12 KB

Статус: проверено
Скачан: 0 раз
Размер: 605 MB
terms.php



Быстрый ответ

Имя:

      
Для отправки сообщений необходимо включить JavaScript
Показать сообщения:    

Текущее время: 11-Дек 01:20

Часовой пояс: UTC + 3


Вы можете начинать темы
Вы можете отвечать на сообщения
Вы не можете редактировать свои сообщения
Вы не можете удалять свои сообщения
Вы не можете голосовать в опросах
Вы не можете прикреплять файлы к сообщениям
Вы можете скачивать файлы