Искусство как заболевание. Встреча с драматургом Евгением Клюевым [2013 г., Творческий вечер, SATRip] Российский академический Молодежный театр


Статистика раздачи [Обновить пиров]
Размер:  749 MB   |    Зарегистрирован:  8 месяцев 28 дней   |    Скачан:  0 раз

Полного источника не было: Никогда

Личеров:  41  [  0 KB/s  ]   Подробная статистика пиров
 
   
 
 
 

[Цитировать]

Искусство как заболевание. Встреча с драматургом Евгением Клюевым Название театра: Российский академический молодежный театр.
Год выпуска: 2013.
Жанр: Творческий вечер.
Продолжительность: 01:16:15.
Описание:
Евгений Васильевич Клюев - писатель, переводчик, поэт, преподаватель, драматург, доктор филологических наук, ученый-лингвист - феноменальное явление в российской литературе. Его знаменитые сказки входят в школьные учебники, а искрометная книга абсурда "Между двух стульев" год за годом занимает верхушки рейтингов крупнейших электронных библиотек, переиздавалась несколько раз и раскупалась в считанные дни.
Держась в стороне от литературной шумихи, никоим образом не продвигая свои книги, уехав даже из России в Данию заниматься социальной и научной работой, Клюев получает круглосуточные овации - от благодарных читателей всех возрастов. Может быть, потому, что Клюев не совсем пишет, Клюев - играет. С героями, с читателем, с самим собой и, главное, - со Словом.
Классическое искусство во все века существовало по принципу мимесиса, то есть подражания. Картины, скульптуры, литературные произведения – все старалось изображать реальность. Но со временем этот принцип стал терять свою привлекательность, а отношения между реальностью и искусством искажаться. Это искажение, потеря границ способствовали тому, чтобы назвать современное искусство болезнью, а точнее эпидемией. Именно этой теме решил посвятить свою встречу со зрителями автор рамтовских спектаклей "Сказки на всякий случай" и "Думайте о нас" Евгений Клюев.

Дополнительная информация:
Страна: Россия .
Выпущено: © телеканал "Театр".

Релиз
Огромное спасибо Доброму человеку за предоставленый материал!!!
Качество видео:...SATRip
Формат:.................AVI
Видео:..720x416 (1.73:1), 25 fps, XviD MPEG-4 ~1234 kbps avg, 0.17 bit/pixel
Аудио:..48 kHz, MPEG Layer 3, 2 ch, ~128.00 kbps avg

Отчет Media Info

General
Complete name : Vstrecha.s.dramaturgom.Klyuevym.2013.XviD.SATRip.fenixclub.avi
Format : AVI
Format/Info : Audio Video Interleave
File size : 749 MiB
Duration : 1h 16mn
Overall bit rate : 1 373 Kbps
Writing application : VirtualDubModRus 1.5.10.2 (build 2542/release)
Writing library : VirtualDub build 34753/release
Video
ID : 0
Format : MPEG-4 Visual
Format profile : Advanced Simple@L5
Format settings, BVOP : 2
Format settings, QPel : No
Format settings, GMC : No warppoints
Format settings, Matrix : Default (MPEG)
Muxing mode : Packed bitstream
Codec ID : XVID
Codec ID/Hint : XviD
Duration : 1h 16mn
Bit rate : 1 235 Kbps
Width : 720 pixels
Height : 416 pixels
Display aspect ratio : 1.731
Frame rate : 25.000 fps
Color space : YUV
Chroma subsampling : 4:2:0
Bit depth : 8 bits
Scan type : Progressive
Compression mode : Lossy
Bits/(Pixel*Frame) : 0.165
Stream size : 674 MiB (90%)
Writing library : XviD 1.2.1 (UTC 2008-12-04)
Audio
ID : 1
Format : MPEG Audio
Format version : Version 1
Format profile : Layer 3
Mode : Joint stereo
Mode extension : MS Stereo
Codec ID : 55
Codec ID/Hint : MP3
Duration : 1h 16mn
Bit rate mode : Constant
Bit rate : 128 Kbps
Channel(s) : 2 channels
Sampling rate : 48.0 KHz
Compression mode : Lossy
Stream size : 69.8 MiB (9%)
Alignment : Split accross interleaves
Interleave, duration : 40 ms (1.00 video frame)
Interleave, preload duration : 500 ms
Writing library : LAME3.99.5ЄЄЄЄЄЄЄЄЄЄ.

Скриншоты

Альтернативный хост

[teatrix.ru].t15365.torrent 
Торрент: Зарегистрирован [ 2016-03-14 00:45 ] · 4CCD883DD8FC965D746AD4ACE6EB4C9A88FE2BC2

Скачать .torrent

Скачать

15 KB

Статус: проверено
Скачан: 0 раз
Размер: 749 MB
terms.php



Быстрый ответ

Имя:

      
Для отправки сообщений необходимо включить JavaScript
Показать сообщения:    

Текущее время: 11-Дек 07:15

Часовой пояс: UTC + 3


Вы можете начинать темы
Вы можете отвечать на сообщения
Вы не можете редактировать свои сообщения
Вы не можете удалять свои сообщения
Вы не можете голосовать в опросах
Вы не можете прикреплять файлы к сообщениям
Вы можете скачивать файлы