Разговор с Александром Мягченковым. Василий Ливанов (Александр Мягченков) [2010 г., Интервью, SATRip]


Статистика раздачи [Обновить пиров]
Размер:  388 MB   |    Зарегистрирован:  8 месяцев 27 дней   |    Скачан:  0 раз

Полного источника не было: Никогда

Личеров:  34  [  0 KB/s  ]   Подробная статистика пиров
 
   
 
 
 

[Цитировать]

Разговор с Александром Мягченковым. Василий Ливанов Год выпуска: 2010.
Жанр: Интервью.
Продолжительность: 00:38:42.
Автор и ведущий: Александр Мягченков.
Шеф-редактор: Марина Меркулова.
Композитор: Эраст Галумов.
Герой программы: народный артист РСФСР, академик, член президиума Национальной академии кинематографических искусств и наук России, Почётный кавалер ордена Британской империи, киноактёр, сценарист, писатель, режиссёр, мультипликатор - Василий Ливанов.
Описание:
Родился 19 июля 1935 года в Москве, в актёрской семье. Его дед, Николай Ливанов (сценический псевдоним Извольский), был актёром сначала провинциальных, потом столичных театров. Отец, Борис Николаевич Ливанов (1904-1972) - выдающийся актёр, сыгравший около сорока ролей в Художественном театре и тридцать - в кино. Завсегдатаями дома Ливановых были Качалов, Пастернак, Довженко, Черкасов, Тарханов, Кончаловский.
Окончил художественную школу и Театральное училище имени Б. В. Щукина, был принят в труппу Театра имени Вахтангова. Не сыграв ни одной роли на сцене, через год распрощался с театром.
В 1959 году дебютировал в кино в фильме кинорежиссёра Михаила Калатозова "Неотправленное письмо". Для достоверности режиссёр предложил озвучить зимние сцены прямо на улице в 40-градусный мороз. Но сильные порывы ветра производили ужасный шум, актёры пытались его перекричать, и в итоге на плёнке получился брак. А Ливанов сорвал голос, который спустя несколько дней восстановился. Так появился уникальный тембр голоса Василия Ливанова.
Затем последовал ряд ярких ролей - Пётр в "Слепом музыканте" (реж. Татьяна Лукашевич), народоволец Крыльцов в "Воскресении" (реж. Михаил Швейцер), врач Саша Зеленин в "Коллегах" режиссёра Алексея Сахарова. Василий Ливанов получил по-настоящему широкую известность. На кинофестивале в Мар-дель-Плате он был назван "самым популярным актёром года". В середине 1960-х годов отказывается от предложений сыграть роль очередного "очкарика" и поступает на Высшие курсы кинорежиссуры. Через 2 года, в 1966 году с отличием защитил диплом - мультипликационным фильмом по своему же сценарию "Самый-самый-самый".
Затем были новые идеи, оригинальные сценарии, режиссерские работы, как правило, не укладывающиеся в рамки устоявшихся канонов. Сценарий фильма "Жу-жу-жу" (1967) - забавная и немного грустная сказка о пчеле-одиночке. В мультфильме "Синяя птица" (1970) автор сценария и режиссёр Василий Ливанов перенёс героев тревожной сказки Метерлинка в реалии ХХ века со всеми новейшими достижениями злых сил. Научно-фантастический фильм "Фаэтон - сын солнца" (1972), имевший большой успех, соединил в себе сказку, античный миф и результаты современных научных изысканий. Жанр мультипликации стал для Ливанова проекцией не только его талантов, но и самой души, жизненной философии, личного миропонимания. После выхода на экран фильма "Фаэтон - сын солнца" Александр Митта отозвался о его авторе такими словами: "Он проложил тропинку в неосвоенный мир искусства будущего". Классикой отечественной мультипликации стал мультфильм по сценарию Василия Ливанова (совместно с Юрием Энтиным) "Бременские музыканты" (1969) с замечательной музыкой Геннадия Гладкова. Неповторимый голос Василия Ливанова одушевил всеми любимые мультяшные персонажи - Карлсон, Крокодил Гена, Удав; а всего голосом Василия Ливанова говорят на экране около 300 персонажей - крокодилы, волшебники, коты, ослики, собаки, медведи, пеликаны, пираты, птицы; злые и добрые, наивные и мудрые, большие и маленькие... В мультфильме же "Как Маша поссорилась с подушкой" он озвучивает всех персонажей - от девочки Маши до летучей мыши.
Сыграл роль непревзойдённого сыщика всех времён и народов - респектабельного и благородного Шерлока Холмса, при этом Ливанов и Соломин так сыграли гения сыска и его верного друга доктора, что самими англичанами были признаны лучшими в мире исполнителями этих ролей. 27 апреля 2007 года в Москве, на Смоленской набережной, у стен посольства Великобритании, открыли скульптурную композицию "Шерлок Холмс и доктор Ватсон" (скульптор Андрей Орлов). Прототипом Шерлока Холмса послужил Василий Ливанов, а доктора Ватсона - Виталий Соломин.

Дополнительная информация:
Страна: Россия .
Выпущено: © Телеканал "Театр".
Эфир 19 июля 2010 г.
Релиз
Рип lesik689 .
Огромное спасибо Доброму человеку за предоставленый материал!!!
Качество видео:...SATRip
Формат:.................AVI
Видео:..720x540 (1.33:1), 25 fps, XviD MPEG-4 ~1265 kbps avg, 0.13 bit/pixel
Аудио:..48 kHz, MPEG Layer 3, 2 ch, ~128.00 kbps avg

Отчет Media Info

Общее
Полное имя : Razgovor.s.Alexandrom.Myagchenkovym.Vasilij.Livanov.2010.XviD.SATRip.fenixclub.avi
Format : AVI
Format/Info : Audio Video Interleave
File size : 388 MiB
Duration : 38mn 42s
Overall bit rate : 1 403 Kbps
Writing application : VirtualDubModRus 1.5.10.2 (build 2542/release)
Writing library : VirtualDubMod build 2542/release
Video
ID : 0
Format : MPEG-4 Visual
Format profile : Advanced Simple@L5
Format settings, BVOP : 2
Format settings, QPel : Yes
Format settings, GMC : No warppoints
Format settings, Matrix : Default (MPEG)
Muxing mode : Packed bitstream
Codec ID : XVID
Codec ID/Hint : XviD
Duration : 38mn 42s
Bit rate : 1 266 Kbps
Width : 720 pixels
Height : 540 pixels
Display aspect ratio : 4:3
Original display aspect ratio : 4:3
Frame rate : 25.000 fps
Color space : YUV
Chroma subsampling : 4:2:0
Bit depth : 8 bits
Scan type : Progressive
Compression mode : Lossy
Bits/(Pixel*Frame) : 0.130
Stream size : 350 MiB (90%)
Writing library : XviD 64
Audio
ID : 1
Format : MPEG Audio
Format version : Version 1
Format profile : Layer 3
Mode : Joint stereo
Mode extension : MS Stereo
Codec ID : 55
Codec ID/Hint : MP3
Duration : 38mn 41s
Bit rate mode : Constant
Bit rate : 128 Kbps
Channel(s) : 2 channels
Sampling rate : 48.0 KHz
Compression mode : Lossy
Stream size : 35.4 MiB (9%)
Alignment : Split accross interleaves
Interleave, duration : 40 ms (1.00 video frame)
Interleave, preload duration : 500 ms.

Скриншоты

Альтернативный хост

[/url]
[teatrix.ru].t15366.torrent 
Торрент: Зарегистрирован [ 2016-03-14 00:45 ] · B2F84DD8AE4C948055B9324AEE5113534F9F6CA4

Скачать .torrent

Скачать

16 KB

Статус: проверено
Скачан: 0 раз
Размер: 388 MB
terms.php



Быстрый ответ

Имя:

      
Для отправки сообщений необходимо включить JavaScript
Показать сообщения:    

Текущее время: 10-Дек 08:00

Часовой пояс: UTC + 3


Вы можете начинать темы
Вы можете отвечать на сообщения
Вы не можете редактировать свои сообщения
Вы не можете удалять свои сообщения
Вы не можете голосовать в опросах
Вы не можете прикреплять файлы к сообщениям
Вы можете скачивать файлы