Мери Поппинс (Сергей Сидоренко) [2011 г., Литературно-музыкальная композиция, SATRip] Из цикла "Сказки с оркестром"


Статистика раздачи [Обновить пиров]
Размер:  664 MB   |    Зарегистрирован:  8 месяцев 20 дней   |    Скачан:  0 раз

Полного источника не было: 5 часов

Личеров:  34  [  0 KB/s  ]   Подробная статистика пиров
 
   
 
 
 

[Цитировать]

Мери Поппинс Из цикла "Сказки с оркестром".
Год выпуска: 2011.
Жанр: Литературно-музыкальная композиция.
Продолжительность: 00:48:54.
Режиссер: Сергей Сидоренко.
Сказку читает: Нонна Гришаева.
Описание:
Всемирно известная сказка о Мэри Поппинс, написанная известной английской писательницей Памелой Линдон Трэверс.
Дополнительная информация:
Страна: Россия .
Выпущено: © ГТРК "Культура".
По сказке Памелы Линдон Трэверс (настоящее имя Хелен Линдон Гофф).
Автор музыкально-литературной композиции: Ксения Суетина.
Запись из концертного зала имени Чайковского.
Академический симфонический оркестр Московской филармонии.
Художественный руководитель и главный дирижер:
Юрий Симонов.
Дирижер: Игорь Манашеров.
Звучат фрагменты произведений: Леонарда Бернстайна, Модеста Мусоргского, Сергея Прокофьева, Игоря Стравинского, Эдварда Элгара, Иоганна Штрауса.
Концерт состоялся 17.09.2011 года.
Оператор-постановщик: Игорь Сидоренко.

Трансляция ГТРК "Культура" в 13:40 02.03.2014 г.
Релиз
Рип lesik689 .
Качество видео:...SATRip
Формат:.................AVI
Видео:..704x528 (1.33:1), 25 fps, XviD MPEG-4 ~1697 kbps avg, 0.18 bit/pixel
Аудио:..48 kHz, AC3 Dolby Digital, 2/0 (L,R) ch, ~192 kbps

Отчет MI

General
Complete name : Skazki.s.orkestrom.Mary.Poppins.2011.XviD.SATRip.fenixclub.avi
Format : AVI
Format/Info : Audio Video Interleave
File size : 664 MiB
Duration : 48mn 54s
Overall bit rate : 1 900 Kbps
Writing application : VirtualDubMod 1.5.10.2 (build 2542/release)
Writing library : VirtualDubMod build 2542/release
Video
ID : 0
Format : MPEG-4 Visual
Format profile : Advanced Simple@L5
Format settings, BVOP : 2
Format settings, QPel : No
Format settings, GMC : No warppoints
Format settings, Matrix : Default (MPEG)
Muxing mode : Packed bitstream
Codec ID : XVID
Codec ID/Hint : XviD
Duration : 48mn 54s
Bit rate : 1 698 Kbps
Width : 704 pixels
Height : 528 pixels
Display aspect ratio : 5:4
Original display aspect ratio : 4:3
Frame rate : 25.000 fps
Color space : YUV
Chroma subsampling : 4:2:0
Bit depth : 8 bits
Scan type : Progressive
Compression mode : Lossy
Bits/(Pixel*Frame) : 0.183
Stream size : 594 MiB (89%)
Writing library : XviD 64
Audio
ID : 1
Format : AC-3
Format/Info : Audio Coding 3
Mode extension : CM (complete main)
Format settings, Endianness : Big
Codec ID : 2000
Duration : 48mn 53s
Bit rate mode : Constant
Bit rate : 192 Kbps
Channel(s) : 2 channels
Channel positions : Front: L R
Sampling rate : 48.0 KHz
Bit depth : 16 bits
Compression mode : Lossy
Stream size : 67.2 MiB (10%)
Alignment : Aligned on interleaves
Interleave, duration : 40 ms (1.00 video frame)
Interleave, preload duration : 512 ms

Скриншоты

Альтернативный хост


Торрент перезалит 25.03.2014 г. в 22:00 МСК в связи с заменой рипа. Исправлена ошибка кодирования.
[teatrix.ru].t15367.torrent 
Торрент: Зарегистрирован [ 2016-03-14 00:45 ] · 68A741FC2AFF260AA87AE89C3AF467D1FC898F13

Скачать .torrent

Скачать

13 KB

Статус: проверено
Скачан: 0 раз
Размер: 664 MB
terms.php



Быстрый ответ

Имя:

      
Для отправки сообщений необходимо включить JavaScript
Показать сообщения:    

Текущее время: 03-Дек 12:33

Часовой пояс: UTC + 3


Вы можете начинать темы
Вы можете отвечать на сообщения
Вы не можете редактировать свои сообщения
Вы не можете удалять свои сообщения
Вы не можете голосовать в опросах
Вы не можете прикреплять файлы к сообщениям
Вы можете скачивать файлы