Творческий вечер Нины Марушиной (Надежда Аракчеева, Дарья Мельникова) [2013 г., творческий вечер, SATRip] Московский драматический театр имени Пушкина


Статистика раздачи [Обновить пиров]
Размер:  550 MB   |    Зарегистрирован:  8 месяцев 24 дня   |    Скачан:  0 раз

Полного источника не было: Никогда

Личеров:  41  [  0 KB/s  ]   Подробная статистика пиров
 
   
 
 
 

[Цитировать]

Творческий вечер Нины Марушиной Название театра: Московский драматический театр имени Пушкина.
Год выпуска: 2013.
Жанр: творческий вечер.
Продолжительность: 00:43:33.
Режиссеры: Надежда Аракчеева, Дарья Мельникова.
В вечере принимали участие:
Евгений Плиткин, Игорь Теплов, Ирина Петрова, Анастасия Лебедева, Александр Матросов, Петр Рыков, Антон Феоктистов, музыканты Максим Гребенников и Виктория Спичак.
Описание:
27 января в филиале театра имени Пушкина состоялся вечер Нины Марушиной "Театральный ералаш" - третий вечер из цикла творческих вечеров артистов театра "Дни нашей жизни".
"Театральный ералаш" заслуженной артистки Нины Марушиной вместил в себя самые яркие моменты её творческой жизни – первые шаги на сцене в Саратове, поступление в Школу-студию МХАТ, встреча с режиссером Борисом Равенских в театре Пушкина, воспоминания о партнёрах по сцене, гастроли и концерты.
Нина Марушина - подлинная русская актриса, которой подвластны многие жанры, она эксцентрична и трогательна, смешна и ранима. И как всегда, когда на сцене Нина Марушина, в зале не осталось равнодушного зрителя!

Дополнительная информация:
Страна: Россия .
Выпущено: Московский драматический театр имени Пушкина, © Телеканал "Театр".
Режиссер вечера: Надежда Аракчеева.
Режиссер телеверсии: Дарья Мельникова.
Операторы: Михаил Кожевников, Сергей Стариков, Олег Теодарович.
Музыкальное сопровождение: Олег Синкин (фортепиано, клавишные), Вячеслав Голиков (гитара).

Релиз
Рип lesik689.
Огромное спасибо Доброму Человеку за предоставленый материал!!!
Качество видео:...SATRip
Формат:.................AVI
Видео:..704x400 (1.76:1), 25 fps, XviD MPEG-4 ~1563 kbps avg, 0.22 bit/pixel
Аудио:..48 kHz, MPEG Layer 3, 2 ch, ~192.00 kbps avg

Отчет Media Info

General
Complete name : Tvorcheskij.vecher.Niny.Marushinoj.2013.XviD.SATRip.fenixclub.avi
Формат : AVI
Формат/Информация : Audio Video Interleave
Размер файла : 550 Мбайт
Продолжительность : 43 м.
Общий поток : 1765 Кбит/сек
Программа кодирования : VirtualDubMod 1.5.10.2 (build 2542/release)
Библиотека кодирования : VirtualDubMod build 2542/release
Видео
Идентификатор : 0
Формат : MPEG-4 Visual
Профиль формата : Advanced Simple@L5
Параметр BVOP формата : 2
Параметр QPel формата : Нет
Параметр GMC формата : Без точки перехода
Параметр матрицы формата : Default (MPEG)
Режим смешивания : Сжатый битовый поток
Идентификатор кодека : XVID
Идентификатор кодека/Подсказка : XviD
Продолжительность : 43 м.
Битрейт : 1564 Кбит/сек
Ширина : 704 пикселя
Высота : 400 пикселей
Соотношение сторон : 5:4
Соотношение сторон в оригинале : 16:9
Частота кадров : 25,000 кадров/сек
Цветовое пространство : YUV
Субдискретизация насыщенности : 4:2:0
Битовая глубина : 8 бит
Тип развёртки : Прогрессивная
Метод сжатия : С потерями
Бит/(Пиксели*Кадры) : 0.222
Размер потока : 487 Мбайт (89%)
Библиотека кодирования : XviD 64
Аудио
Идентификатор : 1
Формат : MPEG Audio
Версия формата : Version 1
Профиль формата : Layer 3
Режим : Joint stereo
Идентификатор кодека : 55
Идентификатор кодека/Подсказка : MP3
Продолжительность : 43 м.
Вид битрейта : Постоянный
Битрейт : 192 Кбит/сек
Каналы : 2 канала
Частота : 48,0 КГц
Метод сжатия : С потерями
Размер потока : 59,8 Мбайт (11%)
Выравнивание : Разделение по промежуткам
Продолжительность промежутка : 40 мс. (1,00 видеокадр)
Время предзагрузки промежутка : 500 мс.

Скриншоты

Альтернативный хост

[teatrix.ru].t15372.torrent 
Торрент: Зарегистрирован [ 2016-03-14 00:44 ] · 2DF753A0F0AD4D8A04032F400E80412758EE3448

Скачать .torrent

Скачать

11 KB

Статус: проверено
Скачан: 0 раз
Размер: 550 MB
terms.php



Быстрый ответ

Имя:

      
Для отправки сообщений необходимо включить JavaScript
Показать сообщения:    

Текущее время: 07-Дек 11:38

Часовой пояс: UTC + 3


Вы можете начинать темы
Вы можете отвечать на сообщения
Вы не можете редактировать свои сообщения
Вы не можете удалять свои сообщения
Вы не можете голосовать в опросах
Вы не можете прикреплять файлы к сообщениям
Вы можете скачивать файлы