Читка пьесы "Мейерхлюндия" (Михаил Угаров) [2014 г., Читка, SATRip]


Статистика раздачи [Обновить пиров]
Размер:  716 MB   |    Зарегистрирован:  8 месяцев 20 дней   |    Скачан:  0 раз

Полного источника не было: Никогда

Личеров:  42  [  0 KB/s  ]   Подробная статистика пиров
 
   
 
 
 

[Цитировать]

Читка пьесы "Мейерхлюндия" Название театра: Театральный центр им. Вс.Мейерхольда.
Год выпуска: 2014.
Жанр: Читка.
Продолжительность: 01:14:15.
Режиссер: Михаил Угаров.
В ролях:
Андрей Родионов, Вадим Щербаков, Александр Молочников, Артем Григорьев, Наталья Сапецкая, Анна Котова-Дерябина, Всеволод Лисовский, Евдокия Германова.
Описание:
В театральном центре имени Мейерхольда прошла читка пьесы драматурга Елены Греминой "Мейерхлюндия". Пьесу представили артисты разных поколений и разных московских театров. Роль поэта, "хулигана" и "озорного гуляки" Сергея Есенина исполнил никто иной, как одиозный современный поэт-бунтарь Андрей Родионов, а исполнителей роли Мейерхольда было несколько.
Пьеса объёмная, героев много, материал огромный, безумно интересный в первую очередь тем, кто исследует творчество Мейерхольда. Хор голосов разной силы и разной тональности рассказывает историю мастера, который совмещал в себе революционера и деспота, продвигал новое искусство и был болезненно ревнив к великим современникам, стал жертвой системы, которую сам же и создавал, даже не успев понять, почему так случилось. Елена Гремина на обсуждении сказала, что материала собрано на спектакль продолжительностью часов на шесть, но режиссёр читки Михаил Угаров волевым решением урезал пьесу до полутора часов сценического времени.

Дополнительная информация:
Страна: Россия .
Выпущено: Телеканал "Театр".
Автор пьесы: Елена Гремина.

Релиз
Огромное спасибо Доброму человеку за предоставленый материал!!!
Качество видео:...SATRip
Формат:.................AVI
Видео:..720x400 (1.80:1), 25 fps, XviD MPEG-4 ~1146 kbps avg, 0.16 bit/pixel
Аудио:..48 kHz, MPEG Layer 3, 2 ch, ~192.00 kbps avg

Отчет MediaInfo

Общее
Полное имя : Chitka.p'esy.Meierxlyundiya.2014.XviD.SATRip.fenixclub.avi
Формат : AVI
Формат/Информация : Audio Video Interleave
Размер файла : 716 Мбайт
Продолжительность : 1 ч. 14 м.
Общий поток : 1349 Кбит/сек
Библиотека кодирования : VirtualDub build 34753/release
Видео
Идентификатор : 0
Формат : MPEG-4 Visual
Профиль формата : Advanced Simple@L5
Параметр BVOP формата : 2
Параметр QPel формата : Нет
Параметр GMC формата : Без точки перехода
Параметр матрицы формата : Default (H.263)
Режим смешивания : Сжатый битовый поток
Идентификатор кодека : XVID
Идентификатор кодека/Подсказка : XviD
Продолжительность : 1 ч. 14 м.
Битрейт : 1147 Кбит/сек
Ширина : 720 пикселей
Высота : 400 пикселей
Соотношение сторон : 16:9
Частота кадров : 25,000 кадров/сек
Цветовое пространство : YUV
Субдискретизация насыщенности : 4:2:0
Битовая глубина : 8 бит
Тип развёртки : Прогрессивная
Метод сжатия : С потерями
Бит/(Пиксели*Кадры) : 0.159
Размер потока : 609 Мбайт (85%)
Библиотека кодирования : XviD 1.2.1 (UTC 2008-12-04)
Аудио
Идентификатор : 1
Формат : MPEG Audio
Версия формата : Version 1
Профиль формата : Layer 3
Режим : Joint stereo
Расширение режима : MS Stereo
Идентификатор кодека : 55
Идентификатор кодека/Подсказка : MP3
Продолжительность : 1 ч. 14 м.
Вид битрейта : Постоянный
Битрейт : 192 Кбит/сек
Каналы : 2 канала
Частота : 48,0 КГц
Метод сжатия : С потерями
Размер потока : 102 Мбайт (14%)
Выравнивание : Разделение по промежуткам
Продолжительность промежутка : 40 мс. (1,00 видеокадр)
Время предзагрузки промежутка : 500 мс.
Библиотека кодирования : LAME3.99.5

Скриншоты

Альтернативный хост

[teatrix.ru].t15373.torrent 
Торрент: Зарегистрирован [ 2016-03-14 00:44 ] · BC6D0F672877E92818253A69897A7A8C098CDEA4

Скачать .torrent

Скачать

14 KB

Статус: проверено
Скачан: 0 раз
Размер: 716 MB
terms.php



Быстрый ответ

Имя:

      
Для отправки сообщений необходимо включить JavaScript
Показать сообщения:    

Текущее время: 03-Дек 07:41

Часовой пояс: UTC + 3


Вы можете начинать темы
Вы можете отвечать на сообщения
Вы не можете редактировать свои сообщения
Вы не можете удалять свои сообщения
Вы не можете голосовать в опросах
Вы не можете прикреплять файлы к сообщениям
Вы можете скачивать файлы