Вилла Антропофф / Villa Antropoff (Каспар Янцис, Владимир Лещёв / Kaspar Jancis, Vladimir Leschiov) [2012, Эстония, Латвия, авторская анимация, WEBRip-AVC]


 

[Цитировать]

Вилла Антропофф / Villa Antropoff
Страна: Эстония, Латвия
Жанр: авторская анимация
Год выпуска: 2012
Продолжительность: 00:13:03
Перевод: Не требуется
Cубтитры: нет
Режиссёры: Каспар Янцис, Владимир Лещёв / Kaspar Jancis, Vladimir Leschiov
Описание: Villa Antropoff - реально существующая эстонская гостиница, размещённая на берегу Финского залива. В этом месте и пересекаются пути двух таких разных персонажей фильма: один - состоятельный человек, справляющий в гостинице свадьбу, другой - чернокожий бедняк, вплавь перебравшийся через океан в поисках лучшей жизни.
Качество видео: WEBRip-AVC
Формат видео: MP4
Видео: 2140 kbps, 1280х720 (16:9), 25.000 fps, AVC (High@L3.1)
Аудио: 192 kbps, 44.1 kHz, 2 channels, AAC (LC)

MediaInfo

General
Complete name : Villa Antropoff (2012).mp4
Format : MPEG-4
Format profile : Base Media / Version 2
Codec ID : mp42
File size : 218 MiB
Duration : 13mn 3s
Overall bit rate mode : Variable
Overall bit rate : 2 334 Kbps
Encoded date : UTC 2014-03-16 11:23:38
Tagged date : UTC 2014-03-16 11:23:38
gsst : 0
gstd : 783741
gssd : B4A7DDA86MH1433945008653454
gshh : r6---sn-4g57kue6.googlevideo.com
Video
ID : 1
Format : AVC
Format/Info : Advanced Video Codec
Format profile : High@L3.1
Format settings, CABAC : Yes
Format settings, ReFrames : 1 frame
Format settings, GOP : M=1, N=60
Codec ID : avc1
Codec ID/Info : Advanced Video Coding
Duration : 13mn 3s
Bit rate : 2 140 Kbps
Maximum bit rate : 6 230 Kbps
Width : 1 280 pixels
Height : 720 pixels
Display aspect ratio : 16:9
Frame rate mode : Constant
Frame rate : 25.000 fps
Color space : YUV
Chroma subsampling : 4:2:0
Bit depth : 8 bits
Scan type : Progressive
Bits/(Pixel*Frame) : 0.093
Stream size : 200 MiB (92%)
Tagged date : UTC 2014-03-16 11:24:12
Audio
ID : 2
Format : AAC
Format/Info : Advanced Audio Codec
Format profile : LC
Codec ID : 40
Duration : 13mn 3s
Bit rate mode : Variable
Bit rate : 192 Kbps
Maximum bit rate : 202 Kbps
Channel(s) : 2 channels
Channel positions : Front: L R
Sampling rate : 44.1 KHz
Compression mode : Lossy
Stream size : 17.9 MiB (8%)
Title : IsoMedia File Produced by Google, 5-11-2011
Encoded date : UTC 2014-03-16 11:24:01
Tagged date : UTC 2014-03-16 11:24:12

Скриншот c названием фильма

Скриншоты




Показать сообщения:    

Текущее время: 06-Дек 11:15

Часовой пояс: UTC + 3


Вы не можете начинать темы
Вы не можете отвечать на сообщения
Вы не можете редактировать свои сообщения
Вы не можете удалять свои сообщения
Вы не можете голосовать в опросах
Вы не можете прикреплять файлы к сообщениям
Вы не можете скачивать файлы