Tchaikovsky - Juliet and Romeo (Mats Ek, Mariko Kida, Ana Laguna) / Петр Чайковский - Джульетта и Ромео (Матс Эк, Александр Поляничко) [2013, Modern ballet, BDRip]


 

[Цитировать]

Juliet and Romeo / Джульетта и Ромео
Год выпуска: 2013
Выпущено: США
Лейбл: C Major
Страна-производитель: Швеция
Жанр: Modern ballet
Продолжительность: 01:47:23
Композитор: П.И. Чайковский / P.I.Tchaikovsky
Дирижер: Александр Поляничко / Alexander Polianichko
Исполнители музыки: Royal Swedish Orchestra
Режиссер/Хореограф: Mats Ek / Матс Эк
Исполнители:
Juliet – Mariko Kida
Romeo – Anthony Lomuljo
Father – Arsen Mehrabyan
Mother – Marie Lindqvist
Duke – Niklas Ek
Nurse – Ana Laguna
Mercutio – Jérôme Marchand
Royal Swedish Ballet
Треклист: Ballet in Two Acts
Описание:
Romeo and Juliet becomes Juliet & Romeo when world-renowned choreographer Mats Ek presents his full-length work to Tchaikovsky's music (excerpts from various of Tchaikovsky´s well-known compositions), with its first performance of the Royal Swedish Ballet at the Royal Opera House.
Recorded live at the Royal Swedish Opera, Stockholm, 2013.
Доп. информация:
Рип с раздачи HDclub
Огромное спасибо BLUE_LIFE и pjhhd
Качество видео: BDRip
Формат/Контейнер: MKV
Видео кодек: H.264
Аудио кодек: AC3
Видео поток: MPEG4 Video (H264) 1920x1080 29.97fps 12.0 Mbps
Аудио поток: Dolby AC3 48000Hz 6ch 448 Kbps

Mediainfo

Format : Matroska
File size : 9.34 GiB
Duration : 1h 47mn
Overall bit rate : 12.5 Mbps
Encoded date : UTC 2014-05-02 14:33:14
Writing application : mkvmerge v2.4.2 ('Oh My God') built on Jan 18 2009 17:30:28
Writing library : libebml v0.7.7 + libmatroska v0.8.1
Video
ID : 1
Format : AVC
Format/Info : Advanced Video Codec
Format profile : High@L4.1
Format settings, CABAC : Yes
Format settings, ReFrames : 3 frames
Muxing mode : Container profile=Unknown@4.1
Codec ID : V_MPEG4/ISO/AVC
Duration : 1h 47mn
Bit rate : 12.0 Mbps
Width : 1 920 pixels
Height : 1 080 pixels
Display aspect ratio : 16:9
Frame rate mode : Variable
Frame rate : 29.970 fps
Color space : YUV
Chroma subsampling : 4:2:0
Bit depth : 8 bits
Scan type : Progressive
Bits/(Pixel*Frame) : 0.193
Stream size : 8.82 GiB (94%)
Writing library : x264 core 116 r2019M 9cc407d
Encoding settings : cabac=1 / ref=3 / deblock=1:-1:-1 / analyse=0x3:0x133 / me=umh / subme=9 / psy=1 / psy_rd=1.00:0.15 / mixed_ref=1 / me_range=16 / chroma_me=1 / trellis=1 / 8x8dct=1 / cqm=0 / deadzone=21,11 / fast_pskip=1 / chroma_qp_offset=-3 / threads=12 / sliced_threads=0 / nr=0 / decimate=1 / interlaced=0 / bluray_compat=0 / constrained_intra=0 / bframes=3 / b_pyramid=1 / b_adapt=2 / b_bias=0 / direct=3 / weightb=1 / open_gop=0 / weightp=2 / keyint=290 / keyint_min=29 / scenecut=40 / intra_refresh=0 / rc_lookahead=40 / rc=2pass / mbtree=1 / bitrate=12000 / ratetol=1.0 / qcomp=0.60 / qpmin=10 / qpmax=51 / qpstep=4 / cplxblur=20.0 / qblur=0.5 / ip_ratio=1.40 / aq=1:1.00
Audio
ID : 2
Format : AC-3
Format/Info : Audio Coding 3
Mode extension : CM (complete main)
Codec ID : A_AC3
Duration : 1h 47mn
Bit rate mode : Constant
Bit rate : 448 Kbps
Channel(s) : 6 channels
Channel positions : Front: L C R, Side: L R, LFE
Sampling rate : 48.0 KHz
Bit depth : 16 bits
Stream size : 344 MiB (4%)



Показать сообщения:    

Текущее время: 08-Дек 07:02

Часовой пояс: UTC + 3


Вы не можете начинать темы
Вы не можете отвечать на сообщения
Вы не можете редактировать свои сообщения
Вы не можете удалять свои сообщения
Вы не можете голосовать в опросах
Вы не можете прикреплять файлы к сообщениям
Вы не можете скачивать файлы