Филип Гласс, Карл Мария фон Вебер, Фредерик Шопен - Амовео, Призрак розы, Сильфида (Бенжамин Мильпье) / Philip Glass, Carl Maria von Weber, Frederic Chopin - Amoveo, Spectre De La Rose, Sylphides (Benjamin Millepied) [2013, Modern ballet, HDTVRip]


 

[Цитировать]

Амовео, Призрак розы, Сильфида / Amoveo, Spectre De La Rose, Sylphides
Год выпуска: 2013
Лейбл: 24 Images
Страна-производитель: Франция
Жанр: Modern ballet
Продолжительность: 01:11:05
Музыка: Филип Гласс / Philip Glass, Карл Мария фон Вебер / Carl Maria von Weber, Фредерик Шопен / Frédéric Chopin
Режиссер/Хореограф: Бенжамин Мильпье / Benjamin Millepied
Режиссер фильма: Jean-Marc Birraux
Сценография и костюмы: Пол Кокс / Paul Cox
Исполнители:
Fernanda Barbosa, Hélène Bourbeillon, Gabriela Gomez, Virginie Mopper, Yu Otagaki, Isabelle Schramm, Sara Shigenari, Sarawanee Tanatanit, Madeline Weng, Daniela Zaghini, Joseph Aitken, Loris Banani, Matan Bouzy, Pierre-Antoine Brunet, Gregory Deltenre, Auréien Dauge, Paul Girard, Armando Gonzalez, Vladimir Ippolitov, Nathanaël Marie
Описание:
Entre le cinéma et la danse, entre l'interprétation et la chorégraphie, entre New York et Los Angeles, entre les États-Unis et la France où il est né voici trente-cinq ans, entre le studio et la publicité, Benjamin Millepied n'a pas envie de choisir. Ou plutôt, son choix est justement d'être sur plusieurs terrains à la fois. Il ne court pas, il vole et décidément, tout lui sourit ! Pour les danseurs du Grand Théâtre de Genève, il signe Le Spectre de la Rose et Les Sylphides, deux pièces mythiques des Ballets russes qu'il revisite à sa façon. Ses Sylphides sont bondissantes, sa version du Spectre est étourdissante et inédite, pleine d'humour et de malice. Millepied compose là des partitions d'aujourd'hui, en conservant un certain romantisme mais parées de couleurs pop. Amoveo, créé initialement pour l'Opéra de Paris, décrypte les métamorphoses d'une histoire d'amour.
Enregistré à la Maison de la Danse de Lyon
Доп. информация:
Спектакли записаны 2 апреля 2013 на сцене Дома танца в Лионе.
Запись трансляции выполнена alex7, за что ему огромное спасибо.
Качество видео: HDTVRip
Формат/Контейнер: MKV
Видео кодек: H.264
Аудио кодек: MP3
Видео поток: MPEG4 Video (H264) 1920x1080 25.00fps 5911 Kbps
Аудио поток: MPEG Audio Layer 3 48000Hz stereo 256 Kbps

Mediainfo

Format : Matroska
File size : 3.12 GiB
Duration : 1h 11mn
Overall bit rate : 6 292 Kbps
Writing application : Lavf51.12.1
Writing library : Lavf51.12.1
Video
ID : 1
Format : AVC
Format/Info : Advanced Video Codec
Format profile : Baseline@L4.0
Format settings, CABAC : No
Format settings, ReFrames : 1 frame
Muxing mode : Container profile=Unknown@4.0
Codec ID : V_MPEG4/ISO/AVC
Duration : 1h 11mn
Bit rate : 5 911 Kbps
Width : 1 920 pixels
Height : 1 080 pixels
Display aspect ratio : 16:9
Frame rate mode : Variable
Frame rate : 25.000 fps
Color space : YUV
Chroma subsampling : 4:2:0
Bit depth : 8 bits
Scan type : Progressive
Bits/(Pixel*Frame) : 0.114
Stream size : 2.93 GiB (94%)
Audio
ID : 2
Format : MPEG Audio
Format version : Version 1
Format profile : Layer 3
Mode : Joint stereo
Codec ID : A_MPEG/L3
Codec ID/Hint : MP3
Duration : 1h 11mn
Bit rate mode : Constant
Bit rate : 256 Kbps
Channel(s) : 2 channels
Sampling rate : 48.0 KHz
Bit depth : 16 bits
Stream size : 130 MiB (4%)
Writing library : LAME3.97ЄЄЄЄЄЄЄЄЄЄЄЄ

Скриншоты




Показать сообщения:    

Текущее время: 05-Дек 03:29

Часовой пояс: UTC + 3


Вы не можете начинать темы
Вы не можете отвечать на сообщения
Вы не можете редактировать свои сообщения
Вы не можете удалять свои сообщения
Вы не можете голосовать в опросах
Вы не можете прикреплять файлы к сообщениям
Вы не можете скачивать файлы