И. С. Бах, Дэвид Ланг - Сарабанда, Эта часть темноты (Бенжамин Мильпье) / J.S. Bach, David Lang - Sarabande, This Part In Darkness (Benjamin Millepied, Nicolas Gourbeix, Julien Beaudiment) [2012, Modern ballet, HDTVRip]


 

[Цитировать]

Сарабанда, Эта часть темноты / Sarabande, This Part In Darkness
Год выпуска: 2012
Лейбл: Mezzo
Страна-производитель: Франция
Жанр: Modern ballet
Продолжительность: 00:57:13
Музыка: И. С. Бах / J.S. Bach, Дэвид Ланг / David Lang
Исполнители мкзыки: Nicolas Gourbeix (скрипка), Julien Beaudiment (флейта), Orchestre de L`Opera national de Lyon
Режиссер/Хореограф: Бенжамин Мильпье / Benjamin Millepied
Режиссер фильма: Louis Wallecan
Исполнители:
Sarabande:
Randy Castillo
Harris Gkekas
Franck Laizet
Raul Serrano Nunez
This Part In Darkness:
Raul Serrano Nunez / Karline Marion
Simon Feltz / Coralie Levieux
Julian Nicosia / Agalie Vandamme
Randy Castillo, Thomas Gallus
Описание:
"Sarabande", créée en 2009 sur une partition de Bach est enjouée, intemporelle. Un seul interprète danse sur la Partita pour flûte tandis que quatre danseurs interviennent sur des extraits de pièces pour violon seul (Sonates 1 et 2, Partita).
"This Part in Darkness" (2011), qui mêle de la vidéo en direct et la musique obsédante de David Lang, est au contraire oppressante et actuelle. Il s'agit d'un ballet pour 16 danseurs créé à Philadelphie. Les images filmées en direct sont projetées sur un grand écran pendant que les interprètes dansent.
Доп. информация:
Запись трансляции из Лионской национальной оперы.
Огромное спасибо alex7
Качество видео: HDTVRip
Формат/Контейнер: MKV
Видео кодек: H.264
Аудио кодек: MP3
Видео поток: MPEG4 Video (H264) 1920x1080 25.00fps 5718 Kbps
Аудио поток: MPEG Audio Layer 3 48000Hz stereo 256 Kbps

Mediainfo

Format : Matroska
File size : 2.44 GiB
Duration : 57mn 13s
Overall bit rate : 6 096 Kbps
Writing application : Lavf51.12.1
Writing library : Lavf51.12.1
Video
ID : 1
Format : AVC
Format/Info : Advanced Video Codec
Format profile : Baseline@L4.0
Format settings, CABAC : No
Format settings, ReFrames : 2 frames
Muxing mode : Container profile=Unknown@4.0
Codec ID : V_MPEG4/ISO/AVC
Duration : 57mn 13s
Bit rate : 5 718 Kbps
Width : 1 920 pixels
Height : 1 080 pixels
Display aspect ratio : 16:9
Frame rate : 25.000 fps
Standard : PAL
Color space : YUV
Chroma subsampling : 4:2:0
Bit depth : 8 bits
Scan type : Progressive
Bits/(Pixel*Frame) : 0.110
Stream size : 2.29 GiB (94%)
Color primaries : BT.470-6 System B, BT.470-6 System G, BT.601-6 625, BT.1358 625, BT.1700 625 PAL, BT.1700 625 SECAM
Transfer characteristics : BT.470-6 System B, BT.470-6 System G
Matrix coefficients : BT.470-6 System B, BT.470-6 System G, BT.601-6 625, BT.1358 625, BT.1700 625 PAL, BT.1700 625 SECAM, IEC 61966-2-4 601
Audio
ID : 2
Format : MPEG Audio
Format version : Version 1
Format profile : Layer 3
Mode : Joint stereo
Codec ID : A_MPEG/L3
Codec ID/Hint : MP3
Duration : 57mn 13s
Bit rate mode : Constant
Bit rate : 256 Kbps
Channel(s) : 2 channels
Sampling rate : 48.0 KHz
Bit depth : 16 bits
Stream size : 105 MiB (4%)

Скриншоты




Показать сообщения:    

Текущее время: 06-Дек 11:15

Часовой пояс: UTC + 3


Вы не можете начинать темы
Вы не можете отвечать на сообщения
Вы не можете редактировать свои сообщения
Вы не можете удалять свои сообщения
Вы не можете голосовать в опросах
Вы не можете прикреплять файлы к сообщениям
Вы не можете скачивать файлы