Alvin Curran - For M.G.: The Movie (Trisha Brown, Ballet de l'Opera de Lyon / Элвин Курран - For M.G.: The Movie (Триша Браун, Лионская национальная опера) [2013, Modern ballet, HDTVRip]


 

[Цитировать]

For M.G.: The Movie
Год выпуска: 2013
Лейбл: MEZZO
Страна-производитель: Франция
Жанр: Modern ballet
Продолжительность: 00:35:21
Музыка: Элвин Курран / Alvin Curran
Режиссер/Хореограф: Триша Браун / Trisha Brown
Режиссер ТВ: Marie-Hélène Rebois
Исполнители:
Marie Laetitia Diiederichs, Simon Feltz, Amandine Francoois, Harris Gkekas, Tadayoshi Kokeguchi, Karline Marion, Elsa Monguillot de Mirman, Pavel Trush, Agalie Vandamme
Описание:
Балет For M.G.: The Movie поставлен Тришей Браун в Лионской национальной опере, записан в феврале 2013 на сцене театра.
Это произведение было создано в 1991 как дань уважения Мишель Гай, создателю Осеннего фестиваля, который проводится в Париже, и большой поклонницы Браун. Именно на этом фестивале в 2013 «Компания Триши Браун» выступила со спектаклем в прощальном туре после решения знаменитой американской танцовщицы и балетмейстера уйти со сцены в возрасте 76 лет.
Доп. информация: Рип и описание alex7, за что ему огромное спасибо
Качество видео: HDTVRip
Формат/Контейнер: MKV
Видео кодек: H.264
Аудио кодек: MP3
Видео поток: MPEG4 Video (H264) 1920x1080 25.00fps 7641 Kbps
Аудио поток: MPEG Audio Layer 3 44100Hz stereo 256 Kbps

Mediainfo

Format : Matroska
File size : 1.99 GiB
Duration : 35mn 21s
Overall bit rate : 8 057 Kbps
Writing application : Lavf51.12.1
Writing library : Lavf51.12.1
Video
ID : 1
Format : AVC
Format/Info : Advanced Video Codec
Format profile : Baseline@L4.0
Format settings, CABAC : No
Format settings, ReFrames : 2 frames
Muxing mode : Container profile=Unknown@4.0
Codec ID : V_MPEG4/ISO/AVC
Duration : 35mn 21s
Bit rate : 7 641 Kbps
Width : 1 920 pixels
Height : 1 080 pixels
Display aspect ratio : 16:9
Frame rate : 25.000 fps
Standard : PAL
Color space : YUV
Chroma subsampling : 4:2:0
Bit depth : 8 bits
Scan type : Progressive
Bits/(Pixel*Frame) : 0.147
Stream size : 1.89 GiB (95%)
Color primaries : BT.470-6 System B, BT.470-6 System G, BT.601-6 625, BT.1358 625, BT.1700 625 PAL, BT.1700 625 SECAM
Transfer characteristics : BT.470-6 System B, BT.470-6 System G
Matrix coefficients : BT.470-6 System B, BT.470-6 System G, BT.601-6 625, BT.1358 625, BT.1700 625 PAL, BT.1700 625 SECAM, IEC 61966-2-4 601
Audio
ID : 2
Format : MPEG Audio
Format version : Version 1
Format profile : Layer 3
Mode : Joint stereo
Codec ID : A_MPEG/L3
Codec ID/Hint : MP3
Duration : 35mn 21s
Bit rate mode : Constant
Bit rate : 256 Kbps
Channel(s) : 2 channels
Sampling rate : 44.1 KHz
Bit depth : 16 bits
Stream size : 64.7 MiB (3%)

Скриншоты




Показать сообщения:    

Текущее время: 05-Дек 21:40

Часовой пояс: UTC + 3


Вы не можете начинать темы
Вы не можете отвечать на сообщения
Вы не можете редактировать свои сообщения
Вы не можете удалять свои сообщения
Вы не можете голосовать в опросах
Вы не можете прикреплять файлы к сообщениям
Вы не можете скачивать файлы