Дом актёра. Владимир Вишневский (Владимир Иванов, Илья Трунин) [2014 г., Капустник, SATRip] Центральный дом актера им. А.А.Яблочкиной


Статистика раздачи [Обновить пиров]
Размер:  592 MB   |    Зарегистрирован:  8 месяцев 21 день   |    Скачан:  0 раз

Полного источника не было: Никогда

Личеров:  40  [  0 KB/s  ]   Подробная статистика пиров
 
   
 
 
 

[Цитировать]

Дом актёра. Владимир ВишневскийГод выпуска: 2014.
Жанр: Капустник.
Продолжительность: 00:42:44.
Режиссёры: Владимир Иванов, Илья Трунин.
Участвуют:
Леонид Якубович, Александр Кабаков, Владимир Качан, Евгений Евтушенко, Аркадий Арканов, Сергей Дорогов, "датский" ансамбль "Генофонд" гильдии актёров кино России, Ефим Смолин, Вероника Долина, Игорь Волгин, Евгений Герчаков, Владимир и Арина Кирсановы, Вероника Кожухарова, солисты театра "Геликон-опера".
Описание:
В Доме Актера прошел вечер-капустник, посвященный творчеству известного поэта Владимира Вишневского.
Дополнительная информация:
Телеверсия, запись 2014 года.
Страна: Россия .
Выпущено: © ООО "АГА".
Автор идеи: Владимир Вишневский.
Режиссёр-постановщик: Владимир Иванов.
Режиссёр телеверсии: Илья Трунин.
Оператор-постановщик: Григорий Чуваков.

Релиз
Рип lesik689.
Качество видео:...SATRip
Формат:.................AVI
Видео:..704x528 (1.33:1), 25 fps, XviD MPEG-4 ~1798 kbps avg, 0.19 bit/pixel
Аудио:..48 kHz, MPEG Layer 3, 2 ch, ~128.00 kbps avg

Отчет Media Info

General
Complete name : Dom.Aktera.Vladimir.Vishnevskij.2014.XviD.SATRip.fenixclub.avi
Формат : AVI
Формат/Информация : Audio Video Interleave
Размер файла : 592 Мбайт
Продолжительность : 42 м.
Общий поток : 1936 Кбит/сек
Программа кодирования : VirtualDubMod 1.5.10.2 (build 2542/release)
Библиотека кодирования : VirtualDubMod build 2542/release
Видео
Идентификатор : 0
Формат : MPEG-4 Visual
Профиль формата : Advanced Simple@L5
Параметр BVOP формата : 2
Параметр QPel формата : Нет
Параметр GMC формата : Без точки перехода
Параметр матрицы формата : Default (MPEG)
Режим смешивания : Сжатый битовый поток
Идентификатор кодека : XVID
Идентификатор кодека/Подсказка : XviD
Продолжительность : 42 м.
Битрейт : 1798 Кбит/сек
Ширина : 704 пикселя
Высота : 528 пикселей
Соотношение сторон : 5:4
Соотношение сторон в оригинале : 4:3
Частота кадров : 25,000 кадров/сек
Цветовое пространство : YUV
Субдискретизация насыщенности : 4:2:0
Битовая глубина : 8 бит
Тип развёртки : Прогрессивная
Метод сжатия : С потерями
Бит/(Пиксели*Кадры) : 0.194
Размер потока : 550 Мбайт (93%)
Библиотека кодирования : XviD 64
Аудио
Идентификатор : 1
Формат : MPEG Audio
Версия формата : Version 1
Профиль формата : Layer 3
Режим : Joint stereo
Расширение режима : MS Stereo
Идентификатор кодека : 55
Идентификатор кодека/Подсказка : MP3
Продолжительность : 42 м.
Вид битрейта : Постоянный
Битрейт : 128 Кбит/сек
Каналы : 2 канала
Частота : 48,0 КГц
Метод сжатия : С потерями
Размер потока : 39,1 Мбайт (7%)
Выравнивание : Разделение по промежуткам
Продолжительность промежутка : 40 мс. (1,00 видеокадр)
Время предзагрузки промежутка : 500 мс.

Скриншоты

Альтернативный хост

[teatrix.ru].t15395.torrent 
Торрент: Зарегистрирован [ 2016-03-14 00:42 ] · 9E910643032385986D9FA7D90649CC8805353816

Скачать .torrent

Скачать

12 KB

Статус: проверено
Скачан: 0 раз
Размер: 592 MB
terms.php



Быстрый ответ

Имя:

      
Для отправки сообщений необходимо включить JavaScript
Показать сообщения:    

Текущее время: 04-Дек 02:50

Часовой пояс: UTC + 3


Вы можете начинать темы
Вы можете отвечать на сообщения
Вы не можете редактировать свои сообщения
Вы не можете удалять свои сообщения
Вы не можете голосовать в опросах
Вы не можете прикреплять файлы к сообщениям
Вы можете скачивать файлы