Дом актера. Семья Лисициан в кругу друзей (Ольга Трегубова) [2002 г., Творческий вечер, SATRip] Центральный дом актера им. А.А.Яблочкиной


Статистика раздачи [Обновить пиров]
Размер:  501 MB   |    Зарегистрирован:  8 месяцев 19 дней   |    Скачан:  0 раз

Полного источника не было: Никогда

Личеров:  39  [  0 KB/s  ]   Подробная статистика пиров
 
   
 
 
 

[Цитировать]

Дом актера. Семья Лисициан в кругу друзейГод выпуска: 2002.
Жанр: Творческий вечер.
Продолжительность: 00:38:06.
Режиссёр: Ольга Трегубова.
Вступительное слово:
[box]Маргарита Эскина[/box]
.
Участники:
Павел Лисициан, Сергей Яковенко, Карина Лисициан, Дагмара Лисициан, Маргарита Мамсирова, Жанна Дозорцева, Георгий Арутюнов, Дмитрий Царегородцев, Галина Чернова.
Описание:
В Доме Актера прошел вечер "Семья Лисициан в кругу друзей", который был задуман после того как отгремели большие и законные торжества по двум поводам. Сначала 225-летия Большого театра, а потом 90-летия народного артиста Советского Союза Павла Герасимовича Лисициана. Когда начинает звучать голос Павла Лисициана возникает удивительное чувство волнения, потому что голос так хорош и так трепетен, что вы не можете на это не ответить. Он был долгие годы кумиром любителей оперы. В вечере принимает участие и вся его замечательная, уникальная семья.
Дополнительная информация:
Страна: Россия .
Выпущено: © Телекомпания "Альма Матер".
Организатор вечера: Наталья Чернова.
Операторы: Михаил Кожевников, Олег Хорш, Вячеслав Сачков.
В программе звучит музыка: Жоржа Бизе, Антона Рубинштейна, Николая Римского-Корсакого, Джузеппе Верди, Александра Гурилева, Михаила Глинки, Александра Даргомыжского, Александра Спендиарова, Евгения Мартынова.

Релиз
Огромное спасибо Дброму человеку за предоставленый материал!!!
Качество видео:...SATRip
Формат:.................AVI
Видео:..688x512 (1.34:1), 25 fps, XviD MPEG-4 ~1700 kbps avg, 0.19 bit/pixel
Аудио:..48 kHz, MPEG Layer 3, 2 ch, ~128.00 kbps avg

Отчет Media Info

General
Complete name : Dom.aktera.Sem'ya.Lisician.2002.XviD.SATRip.fenixclub.avi
Формат : AVI
Формат/Информация : Audio Video Interleave
Размер файла : 501 Мбайт
Продолжительность : 38 м.
Общий поток : 1838 Кбит/сек
Библиотека кодирования : VirtualDub build 34753/release
Видео
Идентификатор : 0
Формат : MPEG-4 Visual
Профиль формата : Advanced Simple@L5
Параметр BVOP формата : 2
Параметр QPel формата : Нет
Параметр GMC формата : Без точки перехода
Параметр матрицы формата : Default (H.263)
Режим смешивания : Сжатый битовый поток
Идентификатор кодека : XVID
Идентификатор кодека/Подсказка : XviD
Продолжительность : 38 м.
Битрейт : 1700 Кбит/сек
Ширина : 688 пикселей
Высота : 512 пикселей
Соотношение сторон : 4:3
Частота кадров : 25,000 кадров/сек
Цветовое пространство : YUV
Субдискретизация насыщенности : 4:2:0
Битовая глубина : 8 бит
Тип развёртки : Прогрессивная
Метод сжатия : С потерями
Бит/(Пиксели*Кадры) : 0.193
Размер потока : 463 Мбайт (93%)
Библиотека кодирования : XviD 1.2.1 (UTC 2008-12-04)
Аудио
Идентификатор : 1
Формат : MPEG Audio
Версия формата : Version 1
Профиль формата : Layer 3
Режим : Joint stereo
Расширение режима : MS Stereo
Идентификатор кодека : 55
Идентификатор кодека/Подсказка : MP3
Продолжительность : 38 м.
Вид битрейта : Постоянный
Битрейт : 128 Кбит/сек
Каналы : 2 канала
Частота : 48,0 КГц
Метод сжатия : С потерями
Размер потока : 34,9 Мбайт (7%)
Выравнивание : Разделение по промежуткам
Продолжительность промежутка : 40 мс. (1,00 видеокадр)
Время предзагрузки промежутка : 500 мс.

Скриншоты

Альтернативный хост

[teatrix.ru].t15396.torrent 
Торрент: Зарегистрирован [ 2016-03-14 00:42 ] · 8CD2564E4EA7E77FFAB7C9E54674C175B3D6F5AF

Скачать .torrent

Скачать

20 KB

Статус: проверено
Скачан: 0 раз
Размер: 501 MB
terms.php



Быстрый ответ

Имя:

      
Для отправки сообщений необходимо включить JavaScript
Показать сообщения:    

Текущее время: 02-Дек 23:10

Часовой пояс: UTC + 3


Вы можете начинать темы
Вы можете отвечать на сообщения
Вы не можете редактировать свои сообщения
Вы не можете удалять свои сообщения
Вы не можете голосовать в опросах
Вы не можете прикреплять файлы к сообщениям
Вы можете скачивать файлы