Дом актера. Диалог о театре с Максаковой. Галина Коновалова [2014 г., Творческий вечер, SATRip] Центральный дом актера им. А.А.Яблочкиной


Статистика раздачи [Обновить пиров]
Размер:  747 MB   |    Зарегистрирован:  8 месяцев 24 дня   |    Скачан:  0 раз

Полного источника не было: Никогда

Личеров:  39  [  0 KB/s  ]   Подробная статистика пиров
 
   
 
 
 

[Цитировать]

Дом актера. Диалог о театре с Максаковой. Галина КоноваловаАвторский цикл "Диалог о театре".
Год выпуска: 2014.
Жанр: Творческий вечер.
Продолжительность: 01:23:00.
Автор и ведущая - Людмила Максакова.
В гостях - Галина Коновалова.
Описание:
В Центральном Доме Актера имени А. Яблочкиной прошел вечер "Диалог о театре" - встреча с легендарной актрисой Галиной Коноваловой, чей творческий путь начался в Театре имени Евгения Вахтангова в 1938 году. Галина Львовна и сегодня является одной из самых востребованных и горячо любимых актрис Вахтанговского театра. Блестящий рассказчик и остроумный собеседник, она – желанный гость многих театральных вечеров и творческих встреч.
Дополнительная информация:
Страна: Россия .
Выпущено: © Телеканал "Театр".

Релиз
Огромное спасибо Дброму человеку за предоставленый материал!!!
Качество видео:...SATRip
Формат:.................AVI
Видео:..720x400 (1.80:1), 25 fps, XviD MPEG-4 ~1119 kbps avg, 0.16 bit/pixel
Аудио:..48 kHz, MPEG Layer 3, 2 ch, ~128.00 kbps avg

Отчет Media Info

General
Complete name : Dom.aktera.Dialog.o.teatre.s.Lyudmiloj.Maksakovoj.Galina.Konovalova.2014.XviD.SATRip.fenixclub.avi
Формат : AVI
Формат/Информация : Audio Video Interleave
Размер файла : 747 Мбайт
Продолжительность : 1 ч. 23 м.
Общий поток : 1258 Кбит/сек
Программа кодирования : VirtualDubModRus 1.5.10.2 (build 2542/release)
Библиотека кодирования : VirtualDub build 34753/release
Видео
Идентификатор : 0
Формат : MPEG-4 Visual
Профиль формата : Advanced Simple@L5
Параметр BVOP формата : 2
Параметр QPel формата : Нет
Параметр GMC формата : Без точки перехода
Параметр матрицы формата : Default (H.263)
Режим смешивания : Сжатый битовый поток
Идентификатор кодека : XVID
Идентификатор кодека/Подсказка : XviD
Продолжительность : 1 ч. 23 м.
Битрейт : 1120 Кбит/сек
Ширина : 720 пикселей
Высота : 400 пикселей
Соотношение сторон : 16:9
Частота кадров : 25,000 кадров/сек
Цветовое пространство : YUV
Субдискретизация насыщенности : 4:2:0
Битовая глубина : 8 бит
Тип развёртки : Прогрессивная
Метод сжатия : С потерями
Бит/(Пиксели*Кадры) : 0.156
Размер потока : 665 Мбайт (89%)
Библиотека кодирования : XviD 1.2.1 (UTC 2008-12-04)
Аудио
Идентификатор : 1
Формат : MPEG Audio
Версия формата : Version 1
Профиль формата : Layer 3
Режим : Joint stereo
Расширение режима : MS Stereo
Идентификатор кодека : 55
Идентификатор кодека/Подсказка : MP3
Продолжительность : 1 ч. 23 м.
Вид битрейта : Постоянный
Битрейт : 128 Кбит/сек
Каналы : 2 канала
Частота : 48,0 КГц
Метод сжатия : С потерями
Размер потока : 76,0 Мбайт (10%)
Выравнивание : Разделение по промежуткам
Продолжительность промежутка : 40 мс. (1,00 видеокадр)
Время предзагрузки промежутка : 500 мс.

Скриншоты

Альтернативный хост

[teatrix.ru].t15399.torrent 
Торрент: Зарегистрирован [ 2016-03-14 00:42 ] · D9DB6352E5E72B4F3C8E8DB615A310C06DE13876

Скачать .torrent

Скачать

15 KB

Статус: проверено
Скачан: 0 раз
Размер: 747 MB
terms.php



Быстрый ответ

Имя:

      
Для отправки сообщений необходимо включить JavaScript
Показать сообщения:    

Текущее время: 07-Дек 13:41

Часовой пояс: UTC + 3


Вы можете начинать темы
Вы можете отвечать на сообщения
Вы не можете редактировать свои сообщения
Вы не можете удалять свои сообщения
Вы не можете голосовать в опросах
Вы не можете прикреплять файлы к сообщениям
Вы можете скачивать файлы