В гостях у Эльдара Рязанова. Вечер-посвящение Олегу Борисову (Эмма Абайдулина, Елена Никитан) [2014 г., Вечер-посвящение, SATRip] Киноклуб "Эльдар"


Статистика раздачи [Обновить пиров]
Размер:  815 MB   |    Зарегистрирован:  8 месяцев 21 день   |    Скачан:  0 раз

Полного источника не было: Никогда

Личеров:  38  [  0 KB/s  ]   Подробная статистика пиров
 
   
 
 
 

[Цитировать]

В гостях у Эльдара Рязанова. Вечер-посвящение Олегу БорисовуГод выпуска: 2014.
Жанр: Вечер-посвящение.
Продолжительность: 01:00:23.
Режиссеры: Эмма Абайдулина, Елена Никитан.
Участники вечера:
Ольга Волкова, Лариса Голубкина, Евгения Смольянинова, Наталья Егорова, Эльдар Рязанов, Сергей Шакуров, Александр Пашутин.
Ведущий вечера: кинорежиссер Вадим Абдрашитов, в фильмах которого Олег Борисов сыграл главные и лучшие свои роли.
Описание:
Про таких, как Олег Иванович Борисов, говорят: отдельный человек.
Народный артист СССР, лауреат множества премий, он избегал парадности, суеты, был очень разборчив в ролях и людях.

Дополнительная информация:
Страна: Россия .
Выпущено: ГТРК "Культура".
Режиссер вечера: Эмма Абайдулина.
Режиссёр телеверсии: Елена Никитан.
Оператор-постановщик: Евгений Тимохин.


Трансляция ГТРК "Культура" в 22:05 29.04.2014г.
Релиз
Рип lesik689 .
Качество видео:...SATRip
Формат:.................AVI
Видео:..720x400 (1.80:1), 25 fps, XviD MPEG-4 ~1748 kbps avg, 0.24 bit/pixel
Аудио:..48 kHz, MPEG Layer 3, 2 ch, ~128.00 kbps avg

Отчет Media Info

General
Complete name : V.gostjah.u.Eldara.Rjazanova.Vecher-posvjashchenije.Olegu.Borisovu.2014.XviD.SATRip.fenixclub.avi
Формат : AVI
Формат/Информация : Audio Video Interleave
Размер файла : 815 Мбайт
Продолжительность : 1 ч. 0 м.
Общий поток : 1886 Кбит/сек
Программа кодирования : VirtualDubMod 1.5.10.2 (build 2542/release)
Библиотека кодирования : VirtualDubMod build 2542/release
Видео
Идентификатор : 0
Формат : MPEG-4 Visual
Профиль формата : Advanced Simple@L5
Параметр BVOP формата : 2
Параметр QPel формата : Нет
Параметр GMC формата : Без точки перехода
Параметр матрицы формата : Default (MPEG)
Режим смешивания : Сжатый битовый поток
Идентификатор кодека : XVID
Идентификатор кодека/Подсказка : XviD
Продолжительность : 1 ч. 0 м.
Битрейт : 1748 Кбит/сек
Ширина : 720 пикселей
Высота : 400 пикселей
Соотношение сторон : 5:4
Соотношение сторон в оригинале : 16:9
Частота кадров : 25,000 кадров/сек
Цветовое пространство : YUV
Субдискретизация насыщенности : 4:2:0
Битовая глубина : 8 бит
Тип развёртки : Прогрессивная
Метод сжатия : С потерями
Бит/(Пиксели*Кадры) : 0.243
Размер потока : 755 Мбайт (93%)
Библиотека кодирования : XviD 64
Аудио
Идентификатор : 1
Формат : MPEG Audio
Версия формата : Version 1
Профиль формата : Layer 3
Режим : Joint stereo
Расширение режима : MS Stereo
Идентификатор кодека : 55
Идентификатор кодека/Подсказка : MP3
Продолжительность : 1 ч. 0 м.
Вид битрейта : Постоянный
Битрейт : 128 Кбит/сек
Каналы : 2 канала
Частота : 48,0 КГц
Метод сжатия : С потерями
Размер потока : 55,3 Мбайт (7%)
Выравнивание : Разделение по промежуткам
Продолжительность промежутка : 39 мс. (0,98 видеокадр)
Время предзагрузки промежутка : 500 мс.

Скриншоты


Альтернативный хост


[teatrix.ru].t15400.torrent 
Торрент: Зарегистрирован [ 2016-03-14 00:42 ] · A76F846E5612C874FCA81F9359B36F0272441C4F

Скачать .torrent

Скачать

16 KB

Статус: проверено
Скачан: 0 раз
Размер: 815 MB
terms.php



Быстрый ответ

Имя:

      
Для отправки сообщений необходимо включить JavaScript
Показать сообщения:    

Текущее время: 04-Дек 02:53

Часовой пояс: UTC + 3


Вы можете начинать темы
Вы можете отвечать на сообщения
Вы не можете редактировать свои сообщения
Вы не можете удалять свои сообщения
Вы не можете голосовать в опросах
Вы не можете прикреплять файлы к сообщениям
Вы можете скачивать файлы