Феликс Мендельсон - Сон в летнюю ночь (Мишель Келеменис) / Felix Mendelssohn - Songe d une Nuit d Ete (Michel Kelemenis, Robert Reimer) [2013, Ballet, HDTVRip]


 

[Цитировать]

Сон в летнюю ночь / Songe d'une Nuit d'Été
Год выпуска: 2013
Лейбл: Grand Theatre de Geneve
Страна-производитель: Швейцария
Жанр: Ballet
Продолжительность: 01:19:58
Музыка: Феликс Мендельсон / Felix Mendelssohn
Дирижер: Robert Reimer
Исполнители музыки: Basel Sinfonietta
Режиссер/Хореограф: Мишель Келеменис / Michel Kelemenis
Исполнители:
Joseph Aitken,
Yu Olagaki,
Sarawanee Tanatanit,
Daniela Zaghini,
Natahanael Marie,
Paul Girard,
Loris Bonani,
Natan Bouzy,
Armando Gonzalez,
Aurelien Dougé,
Fernanda Batosa,
Ornella Capece,
Gabriéla Gomez,
Andie Masezza,
Virginia Nopper,
Angela Rebelo,
Isabelle Scharmm,
Sara Shigenari,
Vladimir Ippollov,
Xavier Juyon,
Nahuel Vega
Описание:
Это современное переосмысление известного произведения Шекспира, предлагаемого хореографом Мишелем Келеменисом и балетом Большого театра Женевы. Упрощенная история, которая уважая оригинальную версию, поддерживает действие четким хореографическим чтением. Мишель Келеменис также включил два вокальных номера оригинального произведения Мендельсона. В оркестровой яме оркестр Базельская Симфониетта во главе с Робертом Реймером.
Доп. информация: Запись трасляции и описание alex7, за что ему огромное спасибо
Качество видео: HDTVRip
Формат/Контейнер: MKV
Видео кодек: H.264
Аудио кодек: AC3
Видео поток: MPEG4 Video (H264) 1920x1080 23.98fps 5 000 Kbps
Аудио поток: Dolby AC3 48000Hz stereo 256 Kbps

Mediainfo

Format : Matroska
File size : 2.95 GiB
Duration : 1h 19mn
Overall bit rate : 5 279 Kbps
Encoded date : UTC 2014-06-04 18:15:27
Writing application : mkvmerge v2.4.2 ('Oh My God') built on Jan 18 2009 17:30:28
Writing library : libebml v0.7.7 + libmatroska v0.8.1
Video
ID : 1
Format : AVC
Format/Info : Advanced Video Codec
Format profile : High@L4.0
Format settings, CABAC : Yes
Format settings, ReFrames : 4 frames
Muxing mode : Container profile=Unknown@4.0
Codec ID : V_MPEG4/ISO/AVC
Duration : 1h 19mn
Bit rate : 5 000 Kbps
Width : 1 920 pixels
Height : 1 080 pixels
Display aspect ratio : 16:9
Frame rate mode : Variable
Frame rate : 23.976 fps
Color space : YUV
Chroma subsampling : 4:2:0
Bit depth : 8 bits
Scan type : Progressive
Bits/(Pixel*Frame) : 0.101
Stream size : 2.75 GiB (93%)
Writing library : x264 core 129
Encoding settings : cabac=1 / ref=3 / deblock=1:0:0 / analyse=0x3:0x113 / me=hex / subme=7 / psy=1 / psy_rd=1.00:0.00 / mixed_ref=1 / me_range=16 / chroma_me=1 / trellis=1 / 8x8dct=1 / cqm=0 / deadzone=21,11 / fast_pskip=1 / chroma_qp_offset=-2 / threads=4 / lookahead_threads=1 / sliced_threads=0 / nr=0 / decimate=1 / interlaced=0 / bluray_compat=0 / constrained_intra=0 / bframes=3 / b_pyramid=2 / b_adapt=1 / b_bias=0 / direct=1 / weightb=1 / open_gop=0 / weightp=2 / keyint=250 / keyint_min=23 / scenecut=40 / intra_refresh=0 / rc_lookahead=40 / rc=abr / mbtree=1 / bitrate=5000 / ratetol=1.0 / qcomp=0.60 / qpmin=0 / qpmax=69 / qpstep=4 / ip_ratio=1.40 / aq=1:1.00
Audio
ID : 2
Format : AC-3
Format/Info : Audio Coding 3
Mode extension : CM (complete main)
Codec ID : A_AC3
Duration : 1h 19mn
Bit rate mode : Constant
Bit rate : 256 Kbps
Channel(s) : 2 channels
Channel positions : Front: L R
Sampling rate : 48.0 KHz
Bit depth : 16 bits
Video delay : 27ms
Stream size : 146 MiB (5%)
Language : English

Скриншоты




Показать сообщения:    

Текущее время: 03-Дек 05:29

Часовой пояс: UTC + 3


Вы не можете начинать темы
Вы не можете отвечать на сообщения
Вы не можете редактировать свои сообщения
Вы не можете удалять свои сообщения
Вы не можете голосовать в опросах
Вы не можете прикреплять файлы к сообщениям
Вы не можете скачивать файлы