Ruben Lebaniegos, Fred Martins, Isaac Munoz y Jose Fyty Carrillo - Utopia (Maria Pages) / Утопия (Мария Пахес) [2012, Балет (фламенко), HDTVRip]


 

[Цитировать]

Утопия / Utopia
Год выпуска: 2012
Лейбл: Mezzo
Страна-производитель: Испания
Жанр: Балет (фламенко)
Продолжительность: 01:16:40
Музыка и аранжировка: Rubén Lebaniegos, Fred Martins, Isaac Muñoz y José 'Fyty' Carrillo
Режиссер фильма: Denis Caïozzi
Режиссер/Хореограф: Мария Пахес / Maria Pages
Исполнители:
танцоры -
María Pagés, Isabel Rodríguez, Eva Varela, María Vega, José Barrios, José Antonio Jurado, Paco Berbel, Rubén Puertas
музыканты -
Ana Ramón et Juan de Mairena (chant), Rubén Lebaniegos y José 'Fyty' Carrillo (guitare), Fred Martins (voix, guitare et cavaquinho), Sergio Menem (violoncelle), Chema Uriarte (percussion)
Треклист:
Балет в восьми частях:
1. Утопия. Пролог - Utopia (Music: Fred Martins; Lyrics: Marcelo Diniz)
2. Диалог - Dialogue (Music: Isaac Muñoz)
3. Переломное время - Broken Time (Music: Rubén Lebaniegos and Traditional; Lyrics: Pablo Neruda, Miguel de Cervantes and Rubén Lebaniegos)
4. Совесть и желание - Conscience and Desire (Music: Rubén Lebaniegos; Lyrics: Larbi El Harti)
5. Нам по пути, камрад - Lets go together, comrade (Music: Traditional; Lyrics: Mario Benedetti)
6. Красный Путь - The Red Path (Music: José “Fity” Carrillo and Traditional; Lyrics: Antonio Machado)
7. Вот, где я хочу жить - That is Where I Want to Live (Music: Rubén Lebaniegos, Caio Marcelo and Traditional; Lyrics: Oscar Niemeyer)
8. Высота - Elevation (Music: Rubén Lebaniegos and Traditional; Lyrics: Charles Baudelaire)
Описание:
Вдохновением для спектакля «Утопия» Марии Пахес послужило творчество бразильского архитектора Оскара Нимейера, который, к слову сказать, принял непосредственное участие в постановке. Неслучайно премьера «Утопии», состоявшаяся в октябре 2011 года, проходила в испанском Центре Оскара Нимейера. «Я много думала об общем рисунке спектакля, – сказала Мария Пахес в интервью телеканалу Euronews, – мне пришло в голову, что линии Оскара Нимейера в этом смысле прекрасно отвечали моим потребностям. Я постаралась их выразить теми средствами пластики, которые у меня были. Удивительно, но спектакль получился и минималистский, и многозначный одновременно. Сегодня, я думаю, хореография легко пересекает границы жанров и тем в искусстве. Не зря ведь говорится, что архитектура – это застывшая музыка. Я думаю, что архитектура – это еще и застывшая хореография».
«Утопия» – это художественное и нравственное заявление о способностях человека к мечте о лучшем будущем. Со слов Марии Пахес смысл «Утопии» очевиден – это признание абсолютной ценности гуманизма во всех его формах и проявлениях. Помимо этого, по мнению великой испанской танцовщицы, «Утопия» – ещё и форма солидарности, способ вести диалог в пути, который необходимо проделать, чтобы найти понимание. «Конфликт, – как абсолютно искренне призналась сеньора Пахес, – это всегда (или почти всегда) непонимание или нежелание понять и принять то, что нас отличает друг от друга».
Доп. информация: Рип и описание alex7, за что ему огромное спасибо.
Качество видео: HDTVRip
Формат/Контейнер: MKV
Видео кодек: H.264
Аудио кодек: AC3
Видео поток: MPEG4 Video (H264) 1920x1080 25.00fps 5000 Kbps
Аудио поток: Dolby AC3 48000Hz stereo 256 Kbps

Mediainfo

Format : Matroska
File size : 2.84 GiB
Duration : 1h 16mn
Overall bit rate : 5 295 Kbps
Encoded date : UTC 2014-06-08 17:00:56
Writing application : mkvmerge v2.4.2 ('Oh My God') built on Jan 18 2009 17:30:28
Writing library : libebml v0.7.7 + libmatroska v0.8.1
Video
ID : 1
Format : AVC
Format/Info : Advanced Video Codec
Format profile : High@L4.0
Format settings, CABAC : Yes
Format settings, ReFrames : 4 frames
Muxing mode : Container profile=Unknown@4.0
Codec ID : V_MPEG4/ISO/AVC
Duration : 1h 16mn
Bit rate : 5 000 Kbps
Width : 1 920 pixels
Height : 1 080 pixels
Display aspect ratio : 16:9
Frame rate mode : Variable
Frame rate : 25.000 fps
Color space : YUV
Chroma subsampling : 4:2:0
Bit depth : 8 bits
Scan type : Progressive
Bits/(Pixel*Frame) : 0.096
Stream size : 2.64 GiB (93%)
Writing library : x264 core 129
Encoding settings : cabac=1 / ref=3 / deblock=1:0:0 / analyse=0x3:0x113 / me=hex / subme=7 / psy=1 / psy_rd=1.00:0.00 / mixed_ref=1 / me_range=16 / chroma_me=1 / trellis=1 / 8x8dct=1 / cqm=0 / deadzone=21,11 / fast_pskip=1 / chroma_qp_offset=-2 / threads=4 / lookahead_threads=1 / sliced_threads=0 / nr=0 / decimate=1 / interlaced=0 / bluray_compat=0 / constrained_intra=0 / bframes=3 / b_pyramid=2 / b_adapt=1 / b_bias=0 / direct=1 / weightb=1 / open_gop=0 / weightp=2 / keyint=250 / keyint_min=25 / scenecut=40 / intra_refresh=0 / rc_lookahead=40 / rc=abr / mbtree=1 / bitrate=5000 / ratetol=1.0 / qcomp=0.60 / qpmin=0 / qpmax=69 / qpstep=4 / ip_ratio=1.40 / aq=1:1.00
Audio
ID : 2
Format : AC-3
Format/Info : Audio Coding 3
Mode extension : CM (complete main)
Codec ID : A_AC3
Duration : 1h 16mn
Bit rate mode : Constant
Bit rate : 256 Kbps
Channel(s) : 2 channels
Channel positions : Front: L R
Sampling rate : 48.0 KHz
Bit depth : 16 bits
Video delay : 27ms
Stream size : 140 MiB (5%)
Language : English

Скриншоты




Показать сообщения:    

Текущее время: 11-Дек 07:15

Часовой пояс: UTC + 3


Вы не можете начинать темы
Вы не можете отвечать на сообщения
Вы не можете редактировать свои сообщения
Вы не можете удалять свои сообщения
Вы не можете голосовать в опросах
Вы не можете прикреплять файлы к сообщениям
Вы не можете скачивать файлы