Родион Щедрин - Кар Мэн (Мэттью Борн) / Georges Bizet - The Car Man (Matthew Bourne, Terry Davies, Brett Morris) [2001, Modern ballet, DVD5]


 

[Цитировать]

Кар Мэн / The Car Man
Год выпуска: 2001
Лейбл: kdm Films 4
Страна-производитель: Великобритания
Жанр: Modern ballet
Продолжительность: 01:26:45
Музыка: Georges Bizet - Родион Щедрин в обработке Terry Davies
Дирижер: Brett Morris
Режиссер/Хореограф: Мэттью Борн / Matthew Bourne
Исполнители:
Лука - Алан Винсент / Alan Vincent
Лана - Сэрэнн Кертин / Saranne Curtin
Анджело - Уилл Кэмп / Will Сamp
Рита - Этта Мурфит / Etta Murfitt
Дино - Скотт Эмблер / Scott Ambler
Описание:
Мэттью Борн соединяет в своих спектаклях разные жанры и выстраивает действие на их стыке. Он запросто может превратить жгучую Кармен в сексапильного водителя грузовика по имени Car-men.
Действие фильма-балета перенесено в некий гараж на американском среднем западе в 1960-е годы. В фильме герой (Люка) соблазняет как Лану (Кармен), так и Анджело (Дона Хосе).
Используя музыку Бизе в обработке Родиона Щедрина и Терри Дэвиса (современный британский композитор ), Боурн переделывает сюжет, оставляя неизменными основные элементы - желание, страсть, месть и убийство.
По окончании короткое 14-ти минутное интервью Мэтью Боурна с рассказом о работе над постановкой.
Качество видео: DVD5
Формат/Контейнер: DVDVideo
Видео кодек: MPEG2
Аудио кодек: AC3
Видео поток: MPEG2 Video 720x576 (16:9) 25.00fps 9800kbps
Аудио поток: Dolby AC3 48000Hz 6ch 448kbps

DVDInfo

Title: Car_Man_Bourne
Size: 4.19 Gb ( 4 398 072,00 KBytes ) - DVD-5
Enabled regions: 1, 2, 3, 4, 5, 6, 7, 8
VTS_01 :
Play Length: 01:26:45+00:00:00
Video: PAL 16:9 (720x576) VBR, Auto Letterboxed
Audio:
English, AC3, 3/2 (L,C,R,SL,SR)+LFE ch, 448 kbps, Delay 0 mSec
English, LPCM, Delay = 0 mSec
VTS_02 :
Play Length: 00:13:51
Video: PAL 16:9 (720x576) VBR, Auto Letterboxed
Audio:
English, AC3, 2/0 (L,R) ch, 192 kbps, Delay 0 mSec
Subtitles:
English
Francais
Deutsch
Espanol
Italiano
* Menus Information *
VIDEO_TS Menu
Video:
PAL 4:3 (720x576) VBR
Audio:
Not specified (Dolby AC3, 2 ch)
English Language Unit :
Title Menu
VTS_01 Menu
Video:
PAL 16:9 (720x576) VBR
Auto Letterboxed
Audio:
Not specified (Dolby AC3, 2 ch)
English Language Unit :
Root Menu
Chapter (PTT) Menu
VTS_02 Menu
Video:
NTSC 4:3 (720x480) VBR
Auto Pan&Scan, Auto Letterboxed
English Language Unit :
Root Menu
Format : MPEG-PS
File size : 1 023 MiB
Duration : 23mn 40s
Overall bit rate : 6 040 Kbps
Video
ID : 224 (0xE0)
Format : MPEG Video
Format version : Version 2
Format profile : Main@Main
Format settings, BVOP : Yes
Format settings, Matrix : Default
Format settings, GOP : M=3, N=12
Duration : 23mn 40s
Bit rate mode : Variable
Bit rate : 3 936 Kbps
Nominal bit rate : 9 800 Kbps
Width : 720 pixels
Height : 576 pixels
Display aspect ratio : 2.35:1
Frame rate : 25.000 fps
Standard : PAL
Color space : YUV
Chroma subsampling : 4:2:0
Bit depth : 8 bits
Scan type : Interlaced
Scan order : Top Field First
Bits/(Pixel*Frame) : 0.380
Stream size : 667 MiB (65%)
Audio #1
ID : 128 (0x80)
Format : AC-3
Format/Info : Audio Coding 3
Mode extension : CM (complete main)
Duration : 23mn 40s
Bit rate mode : Constant
Bit rate : 448 Kbps
Channel(s) : 6 channels
Channel positions : Front: L C R, Side: L R, LFE
Sampling rate : 48.0 KHz
Bit depth : 16 bits
Stream size : 75.9 MiB (7%)
Audio #2
ID : 161 (0xA1)
Format : PCM
Format settings, Endianness : Big
Format settings, Sign : Signed
Muxing mode : DVD-Video
Duration : 23mn 40s
Bit rate mode : Constant
Bit rate : 1 536 Kbps
Channel(s) : 2 channels
Channel positions : Front: L R
Sampling rate : 48.0 KHz
Bit depth : 16 bits
Stream size : 260 MiB (25%)
Menu

Краткое содержание

Гармония - ироничное название для вымышленного маленького городка, в котором происходят далеко не приятные, темные события. Место действия – грязный гараж и закусочная, которыми владеет Дино, ленивый, слабохарактерный алкоголик. Его жена Лана – страстная рыжая лисица с ненасытным сексуальным аппетитом.
Серые будни городка потрясает появление Луки, мускулистого бродяги, который нанимается на работу в гараж, увидев объявление "Man Wanted" ("Нужна помощь"). Сразу же становится ясно, что этот знак вывешен скорее самой Ланой ("Man Wanted" дословно переводится как "Нужен мужчина"). Между Ланой и Лукой быстро развивается страстная связь, но оказывается, что у Луки есть виды и на чувственного Анджело. В погоне за утолением своего сексуального голода Лука соблазняет сбитого с толку Анджело.
С этого момента действие закручивается в штопор и начинается настоящий триллер. За трагедией следует месть.
Лука и Лана замышляют убийство Дино, владельца гаража и мужа Ланы, и обвиняют в этом Анджело. Трагедия ждет в тюрьме беззащитного Анджело. Но в конце концов он возвращается в Гармонию...

Мэтью Боурн - хореограф и танцовщик

Родился в Лондоне. Был настоящим актерским фаном, караулил звезд у подъездов и собрал коллекцию автографов, включая закорючку Фреда Астера. Начал заниматься танцем и хореографией довольно поздно, в 22 года в «Лабан Центре» (Laban Centre). По окончании учебы в течение года танцевал в труппе центра. В 1987 году создал первую собственную компанию “Adventures in Motion Pictures”, которая в течение 15 лет была одной из самых популярных танцевально-театральных компаний в Великобритании. Как хореограф Мэтью Боурн участвовал в возобновлении классических мюзиклов «Оливер» (1994), «Моя прекрасная леди» (2002) и др. За хореографическую работу в мюзикле «Мэри Поппинс» в 2005 году он был удостоен премии Лоуренса Оливье. В 2002 году он создал компанию «Нью Эдвенчерз» (New Adventures). Мэтью Боурн – кавалер ордена Британской Империи, обладатель премии Тони, пяти премий Оливье, а также более тридцати международных премий. Боурн - один из немногих хореографов в мире, которые имеют славу не в узком балетном кругу, а именно среди широкой публики. Он делает популярное искусство высокого класса. Боурн знаменит своими новыми версиями классических балетов.

Скриншоты




Показать сообщения:    

Текущее время: 05-Дек 01:24

Часовой пояс: UTC + 3


Вы не можете начинать темы
Вы не можете отвечать на сообщения
Вы не можете редактировать свои сообщения
Вы не можете удалять свои сообщения
Вы не можете голосовать в опросах
Вы не можете прикреплять файлы к сообщениям
Вы не можете скачивать файлы