Четверть. Юбилей театра "Модернъ" (Светлана Врагова) [2014 г., Юбилейный вечер, SATRip] Московский драматический театр "Модернъ"


Статистика раздачи [Обновить пиров]
Размер:  1.46 GB   |    Зарегистрирован:  8 месяцев 27 дней   |    Скачан:  0 раз

Полного источника не было: Никогда

Личеров:  38  [  0 KB/s  ]   Подробная статистика пиров
 
   
 
 
 

[Цитировать]

Четверть. Юбилей театра "Модернъ" Название театра: Московский драматический театр "Модернъ".
Год выпуска: 2014.
Жанр: Юбилейный вечер.
Продолжительность: 02:18:26.
Режиссер: народная артистка России Светлана Врагова.
Участники:
Светлана Врагова, Олег Царев, Сергей Пинегин, Елена Стародуб, Любовь Новак, Владимир Левашев и артисты театра.
Описание:
Театр "Модернъ" является одним из самых молодых и невероятно ярких столичных сценических площадок. Он был основан в Москве 25 лет назад. За это время театр успел сформировать удивительно яркую и талантливую труппу, многие представители которой стали настоящими российскими знаменитостями.
Запечатленные воспоминания о самом начале Театра на Спартаковской площади: о полуразрушенном здании, где была сыграна "Дорогая Елена Сергеевна", о других спектаклях, о пожаре, в котором погибли декорации и костюмы спектакля "Расплюевские веселые дни". Остроумные сценки, танцевальные номера, множество молодых лиц – все это юбилейный вечер и капустник в театре "Модернъ".

Дополнительная информация:
Страна: Россия .
Выпущено: © Телеканал «Театр».

Релиз
Огромное спасибо Доброму человеку за предоставленый материал!!!
Качество видео:...SATRip
Формат:.................AVI
Видео:..720x400 (1.80:1), 25 fps, XviD MPEG-4 ~1367 kbps avg, 0.19 bit/pixel
Аудио:..48 kHz, MPEG Layer 3, 2 ch, ~128.00 kbps avg

Отчет Media Info

General
Complete name : Chetvert'.Teatr.Modern.2014.XviD.SATRip.fenixclub.avi
Формат : AVI
Формат/Информация : Audio Video Interleave
Размер файла : 1,46 Гбайт
Продолжительность : 2 ч. 18 м.
Общий поток : 1506 Кбит/сек
Программа кодирования : VirtualDubModRus 1.5.10.2 (build 2542/release)
Библиотека кодирования : VirtualDub build 34753/release
Видео
Идентификатор : 0
Формат : MPEG-4 Visual
Профиль формата : Advanced Simple@L5
Параметр BVOP формата : 2
Параметр QPel формата : Нет
Параметр GMC формата : Без точки перехода
Параметр матрицы формата : Default (H.263)
Режим смешивания : Сжатый битовый поток
Идентификатор кодека : XVID
Идентификатор кодека/Подсказка : XviD
Продолжительность : 2 ч. 18 м.
Битрейт : 1368 Кбит/сек
Ширина : 720 пикселей
Высота : 400 пикселей
Соотношение сторон : 16:9
Частота кадров : 25,000 кадров/сек
Цветовое пространство : YUV
Субдискретизация насыщенности : 4:2:0
Битовая глубина : 8 бит
Тип развёртки : Прогрессивная
Метод сжатия : С потерями
Бит/(Пиксели*Кадры) : 0.190
Размер потока : 1,32 Гбайт (91%)
Библиотека кодирования : XviD 1.2.1 (UTC 2008-12-04)
Аудио
Идентификатор : 1
Формат : MPEG Audio
Версия формата : Version 1
Профиль формата : Layer 3
Режим : Joint stereo
Идентификатор кодека : 55
Идентификатор кодека/Подсказка : MP3
Продолжительность : 2 ч. 18 м.
Вид битрейта : Постоянный
Битрейт : 128 Кбит/сек
Каналы : 2 канала
Частота : 48,0 КГц
Метод сжатия : С потерями
Размер потока : 127 Мбайт (9%)
Выравнивание : Разделение по промежуткам
Продолжительность промежутка : 40 мс. (1,00 видеокадр)
Время предзагрузки промежутка : 500 мс.

Скриншоты

Альтернативный хост

[teatrix.ru].t15415.torrent 
Торрент: Зарегистрирован [ 2016-03-14 00:41 ] · D34C93E2DA624C92B96D0F3D130D7F2D83D55702

Скачать .torrent

Скачать

15 KB

Статус: проверено
Скачан: 0 раз
Размер: 1.46 GB
terms.php



Быстрый ответ

Имя:

      
Для отправки сообщений необходимо включить JavaScript
Показать сообщения:    

Текущее время: 10-Дек 17:41

Часовой пояс: UTC + 3


Вы можете начинать темы
Вы можете отвечать на сообщения
Вы не можете редактировать свои сообщения
Вы не можете удалять свои сообщения
Вы не можете голосовать в опросах
Вы не можете прикреплять файлы к сообщениям
Вы можете скачивать файлы