Ференц Эркель – Ласло Хуньяди / Erkel Ferenc - Hunyadi Laszlo (Jozsef Simandi, Klara Takacs, Veronika Kincses) Адам Медвецки / Adam Medveczky (Laszlo Vamos) [1977, Opera-Film, DVDRip-AVC][Русские субтитры (Elena-Rybka) + Eng, Ger, Fre, Ita. Sub's]


 

[Цитировать]

-Ференц Э Р К Е Л Ь
7 ноября (November 7,) 1810 — 25 июня (June 25,) 1893
»«ЛАСЛО ХУНЬЯДИ»1844«HUNYADI LÁSZLÓ»«
Оригинальная версия Венгерского телевидения (Magyar Televízió)
Либретто Бени Эгреши
по мотивам драмы Лёринца Тота (1814−1903) «Два Ласло»
-- Год записи/выхода: 1977 / 2007 / IMDB
Лейбл: VideoLand
Страна: Austria
Жанр: Opera-Film
Продолжительность: 105 min.
Язык: Венгерский
Перевод: © Elena-Rybka
Субтитры/Subtitles: РУССКИЕ, English, German, French, Italian
в составе контейнера

•••
Качество видео: DVDRip-AVC
Исходник: DVD5 [Спасибо, Opera 146!]
Формат/Контейнер: MKV
Видео кодек: H.264
Аудио кодек: AC3
Видео поток: 692@738x574, 1877 kbps, 29,970 fps.
Аудио поток: Венгерский, 192 kbps, 48,0 KHz, 2 ch
(оригинальный)
•••
Режиссёр: ЛАСЛО ВАМОШ
László Vámos
Экранизация: КАЛЬМАН НАДАШДИ
Kálmán Nádasdy
Музыкальная редакция: МИКЛОШ РАНДАЙ (1892-1935)
Randai Miklós-

Действующие лица и исполнители

Венгрия, 1456-й год...
•••
ЛАСЛО V (Ладислаус), король Венгерский - МИКЛОШ БЕНЕДЕК Miklós Benedek
♫ ШАНДОР ПАЛЬЧО Sándor Palcsó
ГРАФ УЛЬРИХ ЦИЛЛЕИ, его советник - ЯНОШ АРВА János Árva
♫ ЭНДРЕ ИТО Endre Ütõ
ЭРЖЕБЕТ СИЛАДИ, вдова Яноша Хуньяди - ХЕДИ ТЕМЕШШИ Hédi Temessy
♫ ЭСТЕР ХОРВАТ Eszter Horváth
Её сыновья:
ЛАСЛО ХУНЬЯДИ - ДЬЁЗЁ ШАРВАРИ Gyözö Sárvári
♫ ЙОЖЕФ ШИМАНДИ József Simándi
МАТИАШ ХУНЬЯДИ - АНДРАШ КОВАЧ András Kovács
♫ КЛАРА ТАКАШ Klára Takács
МИКЛОШ ГАРА, богатый вельможа - ТИБОР ФЕКЕТЕ Tibor Fekete
♫ ШАЙОМ ШОЙОМ-НАДЬ Sándor Sólyom-Nagy
МАРИЯ, его дочь - МАГДОЛЬНА МЕНСАТОР Magdolna Menszátor
♫ ВЕРОНИКА КИНЧЕШ Veronika Kincses
РОЗГОНИ, офицер королевских войск - ПАЛЬ МЕДЬЕШИ Pál Medgyessy
♫ ТАМАШ КЕРТЕС Tamás Kertész
СОТНИК Темишварской крепости - ЗОЛЬТАН ТИМАР Zoltán Tímár
♫ ПЕТЕР КОВАЧ Péter Kovács
•••
ХОР и ОРКЕСТР ВЕНГЕРСКОГО ТЕЛЕВИДЕНИЯ
A Magyar Rádió és Televízió Esztrádzenekara
Дирижёр: АДАМ МЕДВЕЦКИ
Adam Medveczky
Хормейстер: ФЕРЕНЦ ШАПСОН
Ferenc Sapszon

MediaInfo

-

x264 log


avs [info]: 692x574p 16:15 @ 25/1 fps (cfr)
x264 [info]: using SAR=16/15
x264 [info]: using cpu capabilities: MMX2 SSE2Fast SSEMisalign LZCNT
x264 [info]: profile High, level 4.1
x264 [info]: frame I:730 Avg QP:16.48 size: 51130
x264 [info]: frame P:45381 Avg QP:17.60 size: 19741
x264 [info]: frame B:112026 Avg QP:20.95 size: 4918
x264 [info]: consecutive B-frames: 9.7% 0.9% 10.6% 20.4% 20.3% 37.5% 0.4% 0.2%
x264 [info]: mb I I16..4: 3.0% 81.4% 15.7%
x264 [info]: mb P I16..4: 0.4% 9.5% 1.1% P16..4: 35.7% 33.1% 13.8% 2.5% 0.4% skip: 3.4%
x264 [info]: mb B I16..4: 0.0% 0.6% 0.1% B16..8: 30.7% 18.7% 2.2% direct: 8.7% skip:38.9% L0:33.4% L1:40.2% BI:26.4%
x264 [info]: 8x8 transform intra:84.4% inter:49.5%
x264 [info]: coded y,uvDC,uvAC intra: 93.0% 96.4% 76.9% inter: 23.8% 39.7% 11.8%
x264 [info]: i16 v,h,dc,p: 20% 8% 1% 71%
x264 [info]: i8 v,h,dc,ddl,ddr,vr,hd,vl,hu: 11% 9% 6% 9% 12% 14% 12% 14% 13%
x264 [info]: i4 v,h,dc,ddl,ddr,vr,hd,vl,hu: 13% 23% 2% 7% 11% 13% 11% 10% 10%
x264 [info]: i8c dc,h,v,p: 40% 23% 15% 21%
x264 [info]: Weighted P-Frames: Y:5.6% UV:2.9%
x264 [info]: ref P L0: 55.8% 9.8% 15.4% 3.6% 3.5% 2.1% 2.2% 1.1% 1.2% 0.9% 1.0% 0.8% 0.8% 0.7% 0.8% 0.2%
x264 [info]: ref B L0: 90.2% 6.0% 1.1% 0.7% 0.4% 0.4% 0.3% 0.2% 0.2% 0.2% 0.1% 0.1% 0.1% 0.1%
x264 [info]: ref B L1: 98.8% 1.2%
x264 [info]: kb/s:1877.08
x264 [total]: encoded 158137 frames, 1.97 fps, 1877.08 kb/s
-
Общее
Уникальный идентификатор : 194423236617852351988431451867935755252 (0x92448DA6F3215960A92198165D4D4BF4)
Полное имя : D:\Temp Ru.Tracker\Erkel - Hunyadi Laszlo.mkv
Формат : Matroska
Версия формата : Version 4 / Version 2
Размер файла : 1,52 Гбайт
Продолжительность : 1 ч. 45 м.
Общий поток : 2071 Кбит/сек
Дата кодирования : UTC 2014-06-22 12:17:29
Программа кодирования : mkvmerge v6.6.0 ('The Edge Of The In Between') built on Dec 1 2013 17:55:00
Библиотека кодирования : libebml v1.3.0 + libmatroska v1.4.1
Видео
Идентификатор : 1
Формат : AVC
Формат/Информация : Advanced Video Codec
Профиль формата : High@L4.1
Параметр CABAC формата : Да
Параметр ReFrames формата : 15 кадров
Идентификатор кодека : V_MPEG4/ISO/AVC
Продолжительность : 1 ч. 45 м.
Битрейт : 1837 Кбит/сек
Ширина : 692 пикселя
Высота : 574 пикселя
Соотношение сторон : 1,286
Режим частоты кадров : Постоянный
Частота кадров : 25,000 кадров/сек
Цветовое пространство : YUV
Субдискретизация насыщенности : 4:2:0
Битовая глубина : 8 бит
Тип развёртки : Прогрессивная
Бит/(Пиксели*Кадры) : 0.185
Размер потока : 1,35 Гбайт (89%)
Библиотека кодирования : x264 core 130 r2273 b3065e6
Настройки программы : cabac=1 / ref=15 / deblock=1:-2:-2 / analyse=0x3:0x133 / me=umh / subme=11 / psy=1 / psy_rd=1.15:0.05 / mixed_ref=1 / me_range=32 / chroma_me=1 / trellis=2 / 8x8dct=1 / cqm=0 / deadzone=21,11 / fast_pskip=1 / chroma_qp_offset=-3 / threads=3 / lookahead_threads=1 / sliced_threads=0 / nr=0 / decimate=1 / interlaced=0 / bluray_compat=0 / constrained_intra=0 / bframes=7 / b_pyramid=2 / b_adapt=2 / b_bias=0 / direct=1 / weightb=1 / open_gop=0 / weightp=2 / keyint=250 / keyint_min=25 / scenecut=40 / intra_refresh=0 / rc=crf / mbtree=0 / crf=18.0 / qcomp=0.60 / qpmin=0 / qpmax=69 / qpstep=4 / ip_ratio=1.40 / pb_ratio=1.30 / aq=1:1.00
Язык : English
Default : Да
Forced : Нет
Аудио
Идентификатор : 2
Формат : AC-3
Формат/Информация : Audio Coding 3
Расширение режима : CM (complete main)
Параметр Endianness формата : Big
Идентификатор кодека : A_AC3
Продолжительность : 1 ч. 45 м.
Вид битрейта : Постоянный
Битрейт : 192 Кбит/сек
Каналы : 2 канала
Расположение каналов : Front: L R
Частота : 48,0 КГц
Битовая глубина : 16 бит
Метод сжатия : С потерями
Размер потока : 145 Мбайт (9%)
Язык : Hungarian
Default : Да
Forced : Нет
Текст #1
Идентификатор : 3
Формат : ASS
Идентификатор кодека : S_TEXT/ASS
Идентификатор кодека/Информация : Advanced Sub Station Alpha
Метод сжатия : Без потерь
Язык : Russian
Default : Да
Forced : Нет
Текст #2
Идентификатор : 4
Формат : UTF-8
Идентификатор кодека : S_TEXT/UTF8
Идентификатор кодека/Информация : UTF-8 Plain Text
Язык : English
Default : Нет
Forced : Нет
Текст #3
Идентификатор : 5
Формат : UTF-8
Идентификатор кодека : S_TEXT/UTF8
Идентификатор кодека/Информация : UTF-8 Plain Text
Язык : German
Default : Нет
Forced : Нет
Текст #4
Идентификатор : 6
Формат : UTF-8
Идентификатор кодека : S_TEXT/UTF8
Идентификатор кодека/Информация : UTF-8 Plain Text
Язык : French
Default : Нет
Forced : Нет
Текст #5
Идентификатор : 7
Формат : UTF-8
Идентификатор кодека : S_TEXT/UTF8
Идентификатор кодека/Информация : UTF-8 Plain Text
Язык : Italian
Default : Нет
Forced : Нет
-



Показать сообщения:    

Текущее время: 10-Дек 15:43

Часовой пояс: UTC + 3


Вы не можете начинать темы
Вы не можете отвечать на сообщения
Вы не можете редактировать свои сообщения
Вы не можете удалять свои сообщения
Вы не можете голосовать в опросах
Вы не можете прикреплять файлы к сообщениям
Вы не можете скачивать файлы