Микис Теодоракис - 7 греческих танцев (Морис Бежар) / Mikis Theodorakis - 7 Danses grecques (Maurice Bejart, Bejart Ballet Lausanne) [2014, Modern ballet, HDTVRip]


 

[Цитировать]

7 греческих танцев / 7 Danses grecques
Год выпуска: 2014 (запись 19 июня)
Лейбл: Ballet Lausanne
Страна-производитель: Франция
Жанр: Modern ballet
Продолжительность: 00:37:24
Музыка: Микис Теодоракис / Mikis Theodorakis
Режиссер ТВ: Stephane Lebard
Режиссер/Хореограф: Морис Бежар / Maurice Bejart
Исполнители:
Bejart Ballet Lausanne
Alanna Archibald, Aldriana Vargas Lopez, Angelo Perfido, Carme Maria Andres, Chiara Paperini, Chiara Posca, Cosima Munoz, Denovane Victoire, Fabrice Gallarrague, Felipe Rocha, Florianne Bigeon, Hector Navarro, Iker Murillo Badiola, Iker Murillo Badiola, Ilenia Vinci, Jasmine Cammarota, Javier Casado Suarez, Jiayong Sun, Juan Jimenez, Juan Pulido, Julien Favreau, Kathleen Thielhelm, Keisuke Nasuno, Kwinten Guilliams, Laurence Rigg, Lisa Cano, Maëliss Fosse, Marco Merenda, Mari Ohashi, Mari Ohashi, Marsha Rodriguez, Marsha Rodriguez, Masayoshi Onuki, Mattia Galiotto, Michelle Willems, Oscar Chacon, Paride Biasuzzi, Pauline Voisard, Valentin Levalin, Vitali Safronkine
Описание:
Великолепная хореография Мориса Бежара «Семь греческих танцев» на музыку знаменитого композитора 20 века Микиса Теодоракиса.
Этим балетом 19 июня 2014 года на Версальском фестивале, который проводится уже в четвертый раз, открылись дни в дань уважения великому хореографу.
Доп. информация: Рип и описание alex7, за что ему огромное спасибо.
Качество видео: HDTVRip
Формат/Контейнер: MKV
Видео кодек: H.264
Аудио кодек: AC3
Видео поток: MPEG4 Video (H264) 1280x720 25.00fps 820 Kbps
Аудио поток: Dolby AC3 48000Hz stereo 256 Kbps

Mediainfo

Format : Matroska
File size : 287 MiB
Duration : 37mn 24s
Overall bit rate : 1 071 Kbps
Encoded date : UTC 2014-06-26 12:56:09
Writing application : mkvmerge v2.4.2 ('Oh My God') built on Jan 18 2009 17:30:28
Writing library : libebml v0.7.7 + libmatroska v0.8.1
Video
ID : 1
Format : AVC
Format/Info : Advanced Video Codec
Format profile : High@L3.1
Format settings, CABAC : Yes
Format settings, ReFrames : 4 frames
Muxing mode : Container profile=Unknown@3.1
Codec ID : V_MPEG4/ISO/AVC
Duration : 37mn 24s
Bit rate : 820 Kbps
Width : 1 280 pixels
Height : 720 pixels
Display aspect ratio : 16:9
Frame rate mode : Variable
Frame rate : 25.000 fps
Color space : YUV
Chroma subsampling : 4:2:0
Bit depth : 8 bits
Scan type : Progressive
Bits/(Pixel*Frame) : 0.036
Stream size : 212 MiB (74%)
Writing library : x264 core 129
Encoding settings : cabac=1 / ref=3 / deblock=1:0:0 / analyse=0x3:0x113 / me=hex / subme=7 / psy=1 / psy_rd=1.00:0.00 / mixed_ref=1 / me_range=16 / chroma_me=1 / trellis=1 / 8x8dct=1 / cqm=0 / deadzone=21,11 / fast_pskip=1 / chroma_qp_offset=-2 / threads=4 / lookahead_threads=1 / sliced_threads=0 / nr=0 / decimate=1 / interlaced=0 / bluray_compat=0 / constrained_intra=0 / bframes=3 / b_pyramid=2 / b_adapt=1 / b_bias=0 / direct=1 / weightb=1 / open_gop=0 / weightp=2 / keyint=250 / keyint_min=25 / scenecut=40 / intra_refresh=0 / rc_lookahead=40 / rc=abr / mbtree=1 / bitrate=820 / ratetol=1.0 / qcomp=0.60 / qpmin=0 / qpmax=69 / qpstep=4 / ip_ratio=1.40 / aq=1:1.00
Language : English
Audio
ID : 2
Format : AC-3
Format/Info : Audio Coding 3
Mode extension : CM (complete main)
Codec ID : A_AC3
Duration : 37mn 24s
Bit rate mode : Constant
Bit rate : 256 Kbps
Channel(s) : 2 channels
Channel positions : Front: L R
Sampling rate : 48.0 KHz
Bit depth : 16 bits
Video delay : 18ms
Stream size : 68.5 MiB (24%)
Language : English

Скриншоты




Показать сообщения:    

Текущее время: 09-Дек 16:35

Часовой пояс: UTC + 3


Вы не можете начинать темы
Вы не можете отвечать на сообщения
Вы не можете редактировать свои сообщения
Вы не можете удалять свои сообщения
Вы не можете голосовать в опросах
Вы не можете прикреплять файлы к сообщениям
Вы не можете скачивать файлы