Фредерик Шопен, Сезар Франк - Танцы на вечеринке, Психея (Джером Роббинс, Алексей Ратманский) / Frederic Chopin, Cesar Franck - Dances at a Gathering, Psyche (Jerome Robbins, Alexei Ratmansky, Felix Krieger) [2014, Ballet, HDTVRip]


 

[Цитировать]

Вечер Джерома Роббинса и Алексея Ратманского / Soiree Jerome Robbins et Alexei Ratmansky
Год выпуска: 2014 (прямая трансляция 27 июня)
Лейбл: Opera National de Paris
Страна-производитель: Франция
Жанр: Ballet
Продолжительность: 02:05:43
Исполнители музыки: Национальной парижской оперы / Orchestre de l'Opéra National de Paris
Дирижер: Felix Krieger
Режиссер ТВ: Thierry Teston
Треклист:
1.
Танцы на вечеринке / Dances at a Gathering
Хореография: Джером Роббинс / Jerome Robbins
Музыка: Фредерик Шопен / Frederic Chopin
Фортепиано: Ryoko Hisayama
Костюмы: Joe Eula
Свет: Jennifer Tipton
Премьера: 22 мая 1969 в Нью-Йорке, в Национальной прарижской опере - 16 ноября 1991
2.
Психея / Psyche
Хореография: Алексей Ратманский / Alexei Ratmansky
Музыка: Сезар Франк, Симфоническая поэма для оркестра и хора / César Franck, poème symphonique pour orchestre et choeur
Сценография: Карен Килиминик / Karen Kilimnik
Костюмы: Аделина Андре / Adeline André
Свет: Madjid Hakimi
Премьера: 21 ноября 2011 в Национальной парижской опере
Описание:
Вечер Джерома Роббинса и Алексея Ратманского транслировался в прямом эфире 27 июня 2014 из Национальной парижской оперы (Дворец Гарнье). Включает в себя одноактные балеты «Танцы на вечеринке» Джерома Роббинса и «Психея» Алексея Ратманского. Все комментарии и интервью по ходу трансляции из записи удалены.
Дополнительная информация: Рип и описание alex7, за что ему огромное спасибо
Качество видео: HDTVRip
Формат/Контейнер: MKV
Видео кодек: H.264
Аудио кодек: AC3
Видео поток: MPEG4 Video (H264) 1920x1080 25.00fps 7611 Kbps
Аудио поток: Dolby AC3 48000Hz stereo 256 Kbps

Mediainfo

Format : Matroska
File size : 7.05 GiB
Duration : 2h 5mn
Overall bit rate : 8 027 Kbps
Encoded date : UTC 2014-06-30 15:12:38
Writing application : mkvmerge v2.4.2 ('Oh My God') built on Jan 18 2009 17:30:28
Writing library : libebml v0.7.7 + libmatroska v0.8.1
Video
ID : 1
Format : AVC
Format/Info : Advanced Video Codec
Format profile : Baseline@L4.0
Format settings, CABAC : No
Format settings, ReFrames : 2 frames
Muxing mode : Container profile=Unknown@4.0
Codec ID : V_MPEG4/ISO/AVC
Duration : 2h 5mn
Bit rate : 7 611 Kbps
Width : 1 920 pixels
Height : 1 080 pixels
Display aspect ratio : 16:9
Frame rate : 25.000 fps
Standard : PAL
Color space : YUV
Chroma subsampling : 4:2:0
Bit depth : 8 bits
Scan type : Progressive
Bits/(Pixel*Frame) : 0.147
Stream size : 6.68 GiB (95%)
Color primaries : BT.470-6 System B, BT.470-6 System G, BT.601-6 625, BT.1358 625, BT.1700 625 PAL, BT.1700 625 SECAM
Transfer characteristics : BT.470-6 System B, BT.470-6 System G
Matrix coefficients : BT.470-6 System B, BT.470-6 System G, BT.601-6 625, BT.1358 625, BT.1700 625 PAL, BT.1700 625 SECAM, IEC 61966-2-4 601
Audio
ID : 2
Format : AC-3
Format/Info : Audio Coding 3
Mode extension : CM (complete main)
Codec ID : A_AC3
Duration : 2h 5mn
Bit rate mode : Constant
Bit rate : 256 Kbps
Channel(s) : 2 channels
Channel positions : Front: L R
Sampling rate : 48.0 KHz
Bit depth : 16 bits
Stream size : 230 MiB (3%)

Скриншоты




Показать сообщения:    

Текущее время: 07-Дек 11:40

Часовой пояс: UTC + 3


Вы не можете начинать темы
Вы не можете отвечать на сообщения
Вы не можете редактировать свои сообщения
Вы не можете удалять свои сообщения
Вы не можете голосовать в опросах
Вы не можете прикреплять файлы к сообщениям
Вы не можете скачивать файлы