Бхакти III (Морис Бежар, Балет Бежара в Лозанне) / Bhakti III (Maurice Bejart, Bejart Ballet Lausanne) [2014, Ballet, WebRip]


 

[Цитировать]

Бхакти III / Bhakti III
Внимание: рип заменен на более качественный 02.07.14
Год выпуска: 2014 (запись 19 июня)
Лейбл: Bejart Ballet Lausanne
Страна-производитель: Франция
Жанр: Ballet
Продолжительность: 00:14:03
Музыка: Musiques traditionnelles indiennes
Режиссер/Хореограф: Морис Бежар / Maurice Bejart
Художественный руководитель: Жиль Роман / Gil Roman
Режиссер ТВ: Stephane Lebard
Исполнители:
Shakti (Шакти) - Marsha Rodriguez,
Shiva (Шива) - Fabrice Gallarrague,
Les hommes en prière (мужчины в молитве) - Mattia Galiotto, Paride Biasuzzi, Javier Casado Suarez, Angelo Perfido, Denovane Victoire, Kwinten Guilliams
Описание:
Балет Бежара из Лозанны представляет на Версальском фестивале-2014 работу Мориса Бежара, поставленную в 1968 году.
Бхакти III или «Шива» относится к числу наименее исполняемых балетов хореографа.
Качество видео: WebRip
Формат/Контейнер: MKV
Видео кодек: H.264
Аудио кодек: AC3
Видео поток: MPEG4 Video (H264) 1280x720 25.00fps 6390 Kbps
Аудио поток: Dolby AC3 48000Hz stereo 256 Kbps

Mediainfo

Format : Matroska
File size : 682 MiB
Duration : 14mn 3s
Overall bit rate : 6 780 Kbps
Encoded date : UTC 2014-07-02 16:24:56
Writing application : mkvmerge v2.4.2 ('Oh My God') built on Jan 18 2009 17:30:28
Writing library : libebml v0.7.7 + libmatroska v0.8.1
Video
ID : 1
Format : AVC
Format/Info : Advanced Video Codec
Format profile : High@L4.1
Format settings, CABAC : Yes
Format settings, ReFrames : 3 frames
Muxing mode : Container profile=Unknown@4.1
Codec ID : V_MPEG4/ISO/AVC
Duration : 14mn 3s
Bit rate : 6 390 Kbps
Width : 1 280 pixels
Height : 720 pixels
Display aspect ratio : 16:9
Frame rate mode : Variable
Frame rate : 25.000 fps
Color space : YUV
Chroma subsampling : 4:2:0
Bit depth : 8 bits
Scan type : Progressive
Bits/(Pixel*Frame) : 0.277
Stream size : 642 MiB (94%)
Language : English
Audio
ID : 2
Format : AC-3
Format/Info : Audio Coding 3
Mode extension : CM (complete main)
Codec ID : A_AC3
Duration : 14mn 3s
Bit rate mode : Constant
Bit rate : 256 Kbps
Channel(s) : 2 channels
Channel positions : Front: L R
Sampling rate : 48.0 KHz
Bit depth : 16 bits
Stream size : 25.7 MiB (4%)
Language : English

Скриншоты




Показать сообщения:    

Текущее время: 18-Янв 02:32

Часовой пояс: UTC + 3


Вы не можете начинать темы
Вы не можете отвечать на сообщения
Вы не можете редактировать свои сообщения
Вы не можете удалять свои сообщения
Вы не можете голосовать в опросах
Вы не можете прикреплять файлы к сообщениям
Вы не можете скачивать файлы