Дом Актера. Творческий вечер композитора Романа Львовича (Татьяна Александрова) [2013 г., Творческий вечер, SATRip] Центральный дом актера им. А.А.Яблочкиной


Статистика раздачи [Обновить пиров]
Размер:  700 MB   |    Зарегистрирован:  8 месяцев 24 дня   |    Скачан:  0 раз

Полного источника не было: Никогда

Личеров:  39  [  0 KB/s  ]   Подробная статистика пиров
 
   
 
 
 

[Цитировать]

Дом Актера. Творческий вечер композитора Романа ЛьвовичаГод выпуска: 2013.
Жанр: Творческий вечер.
Продолжительность: 01:04:16.
Режиссер телеверсии: Татьяна Александрова.
В передаче принимают участие:
Заслуженный артист России Борис Львович, народный артист России Геннадий Гладков, заслуженный деятель искусств России Михаил Борисов, заслуженная артистка России Ирина Шведова, народный артист России Валерий Белякович, Олеся Фокина, народный артист России Валерий Усков.
Описание:
В Доме актера прошел творческий вечер композитора Романа Львовича.
Роман Львович окончил композиторский факультет Московской Государственной консерватории.
Член Союза композиторов России.
Лауреат премии Мариинского театра (2005, за оперу по Н.Гоголю).
Одним из любимых учителей и первых наставников Р.Львовича стал известный композитор Геннадий Гладков.
Роман Львович автор музыки современных романсов на стихи русских и зарубежных поэтов, фортепьянных, хоровых, камерно-инструментальных, симфонических и эстрадных сочинений, музыки для драматического театра, кино и телевидения. Центральное место в творчестве композитора занимает оперный жанр. Его первая опера-мюзикл "Хоббит" идёт на сцене Санкт-Петербургского театра "Зазеркалье". Премьера второй оперы "Марбургский счёт" о жизни Ломоносова и Пастернака состоялась в 2003 г. в г. Марбурге (Германия). Премьера третьей оперы "Ревизор. После комедии." состоялась 7 ноября 2006 г. в Государственном Театре Наций (Москва) при участии солистов, хора и оркестра Московского академического музыкального театра им. Станиславского и Немировича-Данченко.

Дополнительная информация:
Страна: Россия .
Выпущено: © ООО "Альма Матер".
Автор идеи: Людмила Черновская.
Операторы: Сергей Стариков, Михаил Кожевников, Мария Сергеева, Тимур Гузаиров.

Релиз
Огромное спасибо Доброму человеку за предоставленый материал!!!
К сожалению, из-за брака трансляции на 4-й минуте около 30 секунд изображение рассыпается, видны артефакты.
Качество видео:...SATRip
Формат:.................AVI
Видео:..720x400 (1.80:1), 25 fps, XviD MPEG-4 ~1384 kbps avg, 0.19 bit/pixel
Аудио:..48 kHz, MPEG Layer 3, 2 ch, ~128.00 kbps avg

Отчет MI

Общее
Полное имя : Dom.aktera.Vecher.kompozitora.L'vovicha.2013.XviD.SATRip.fenixclub.avi
Формат : AVI
Формат/Информация : Audio Video Interleave
Размер файла : 700 Мбайт
Продолжительность : 1 ч. 4 м.
Общий поток : 1523 Кбит/сек
Программа кодирования : VirtualDubModRus 1.5.10.2 (build 2542/release)
Библиотека кодирования : VirtualDub build 34753/release
Видео
Идентификатор : 0
Формат : MPEG-4 Visual
Профиль формата : Advanced Simple@L5
Параметр BVOP формата : 2
Параметр QPel формата : Нет
Параметр GMC формата : Без точки перехода
Параметр матрицы формата : Default (H.263)
Режим смешивания : Сжатый битовый поток
Идентификатор кодека : XVID
Идентификатор кодека/Подсказка : XviD
Продолжительность : 1 ч. 4 м.
Битрейт : 1385 Кбит/сек
Ширина : 720 пикселей
Высота : 400 пикселей
Соотношение сторон : 16:9
Частота кадров : 25,000 кадров/сек
Цветовое пространство : YUV
Субдискретизация насыщенности : 4:2:0
Битовая глубина : 8 бит
Тип развёртки : Прогрессивная
Метод сжатия : С потерями
Бит/(Пиксели*Кадры) : 0.192
Размер потока : 637 Мбайт (91%)
Библиотека кодирования : XviD 1.2.1 (UTC 2008-12-04)
Аудио
Идентификатор : 1
Формат : MPEG Audio
Версия формата : Version 1
Профиль формата : Layer 3
Режим : Joint stereo
Идентификатор кодека : 55
Идентификатор кодека/Подсказка : MP3
Продолжительность : 1 ч. 4 м.
Вид битрейта : Постоянный
Битрейт : 128 Кбит/сек
Каналы : 2 канала
Частота : 48,0 КГц
Метод сжатия : С потерями
Размер потока : 58,8 Мбайт (8%)
Выравнивание : Разделение по промежуткам
Продолжительность промежутка : 40 мс. (1,00 видеокадр)
Время предзагрузки промежутка : 500 мс.

Скриншоты

Альтернативный хост

[teatrix.ru].t15433.torrent 
Торрент: Зарегистрирован [ 2016-03-14 00:39 ] · 0523B3399BAC33FDDF68F5DB4B409BB94927D51B

Скачать .torrent

Скачать

14 KB

Статус: проверено
Скачан: 0 раз
Размер: 700 MB
terms.php



Быстрый ответ

Имя:

      
Для отправки сообщений необходимо включить JavaScript
Показать сообщения:    

Текущее время: 07-Дек 11:38

Часовой пояс: UTC + 3


Вы можете начинать темы
Вы можете отвечать на сообщения
Вы не можете редактировать свои сообщения
Вы не можете удалять свои сообщения
Вы не можете голосовать в опросах
Вы не можете прикреплять файлы к сообщениям
Вы можете скачивать файлы