Чаплин (Марио Шредер) / Charlie Chaplin, Benjamin Britten, Samuel Barber, Richard Wagner - Chaplin (Mario Schroder, Matthias Foremny) [2013, Ballet, BDRip]


 

[Цитировать]

Чаплин / Chaplin
Год выпуска: 2013
Лейбл: EUROARTS
Страна-производитель: Великобритания
Жанр: Ballet
Продолжительность: 01:38:50
Музыка: Charlie Chaplin, Benjamin Britten, Samuel Barber, Richard Wagner
Дирижер: Matthias Foremny
Исполнители музыки: Gewandhaus Orchestra
Режиссер/Хореограф: Марио Шрёдер / Mario Schröder
Исполнители:
Tyler Galster (Chaplin)
Amelia Waller (Tramp)
Urania Lobo García (Mother)
Alexander Teutscher (Father)
Vanessa Shield (Mildred)
Isis Calil de Albuquerque (Paulette)
Romy Avemarg (Oona)
Oliver Preiß (Dictator)
Leipzig Ballet
Описание:
The little guy with his mustache, his bowler hat and his bamboo cane is world-famous. But, who is the man behind this figure? Mario Schröder wondered the same thing when choreographing “Chaplin”. His rise to fame makes Chaplin a person of public interest. The clown becomes political. America’s conservatives are, however, suspicious of Chaplin’s convictions. Suspected of communism, he is eventually expelled. The ballet describes Chaplin’s life in relation to his creative work and shows that an artist who observes his environment both sensitively and consciously is behind the funny Tramp.
Доп. информация: Рип с раздачи HDClab, огромное спасибо PeterGriffin
Качество видео: BDRip
Формат/Контейнер: MKV
Видео кодек: H.264
Аудио кодек: AC3
Видео поток: MPEG4 Video (H264) 1920x1080 29.97fps 10 000 Kbps
Аудио поток: Dolby AC3 48000Hz 6ch 448 Kbps

Mediainfo

Format : Matroska
File size : 7.22 GiB
Duration : 1h 38mn
Overall bit rate : 10.5 Mbps
Encoded date : UTC 2014-07-12 16:49:41
Writing application : mkvmerge v2.4.2 ('Oh My God') built on Jan 18 2009 17:30:28
Writing library : libebml v0.7.7 + libmatroska v0.8.1
Video
ID : 1
Format : AVC
Format/Info : Advanced Video Codec
Format profile : High@L4.1
Format settings, CABAC : Yes
Format settings, ReFrames : 3 frames
Muxing mode : Container profile=Unknown@4.1
Codec ID : V_MPEG4/ISO/AVC
Duration : 1h 38mn
Bit rate : 10 000 Kbps
Width : 1 920 pixels
Height : 1 080 pixels
Display aspect ratio : 16:9
Frame rate mode : Variable
Frame rate : 29.970 fps
Color space : YUV
Chroma subsampling : 4:2:0
Bit depth : 8 bits
Scan type : Progressive
Bits/(Pixel*Frame) : 0.161
Stream size : 6.76 GiB (94%)
Writing library : x264 core 116 r2019M 9cc407d
Encoding settings : cabac=1 / ref=3 / deblock=1:-1:-1 / analyse=0x3:0x133 / me=umh / subme=9 / psy=1 / psy_rd=1.00:0.15 / mixed_ref=1 / me_range=16 / chroma_me=1 / trellis=1 / 8x8dct=1 / cqm=0 / deadzone=21,11 / fast_pskip=1 / chroma_qp_offset=-3 / threads=12 / sliced_threads=0 / nr=0 / decimate=1 / interlaced=0 / bluray_compat=0 / constrained_intra=0 / bframes=3 / b_pyramid=1 / b_adapt=2 / b_bias=0 / direct=3 / weightb=1 / open_gop=0 / weightp=2 / keyint=290 / keyint_min=29 / scenecut=40 / intra_refresh=0 / rc_lookahead=40 / rc=2pass / mbtree=1 / bitrate=10000 / ratetol=1.0 / qcomp=0.60 / qpmin=10 / qpmax=51 / qpstep=4 / cplxblur=20.0 / qblur=0.5 / ip_ratio=1.40 / aq=1:1.00
Audio
ID : 2
Format : AC-3
Format/Info : Audio Coding 3
Mode extension : CM (complete main)
Codec ID : A_AC3
Duration : 1h 38mn
Bit rate mode : Constant
Bit rate : 448 Kbps
Channel(s) : 6 channels
Channel positions : Front: L C R, Side: L R, LFE
Sampling rate : 48.0 KHz
Bit depth : 16 bits
Stream size : 317 MiB (4%)

Скриншоты




Показать сообщения:    

Текущее время: 10-Дек 08:04

Часовой пояс: UTC + 3


Вы не можете начинать темы
Вы не можете отвечать на сообщения
Вы не можете редактировать свои сообщения
Вы не можете удалять свои сообщения
Вы не можете голосовать в опросах
Вы не можете прикреплять файлы к сообщениям
Вы не можете скачивать файлы