Из коллекции Дмитрия Назарова [2012 г., Приложение к телеигре, SATRip]


Статистика раздачи [Обновить пиров]
Размер:  453 MB   |    Зарегистрирован:  8 месяцев 23 дня   |    Скачан:  0 раз

Полного источника не было: Никогда

Личеров:  40  [  0 KB/s  ]   Подробная статистика пиров
 
   
 
 
 

[Цитировать]

Из коллекции Дмитрия НазароваЖанр: Приложение к телеигре.
Год выпуска: 2012.
Продолжительность: 01:54:29
ГИсполнитель: Дмитрий Назаров.
Описание:
Народный артист России Дмитрий Назаров, очень разноплановый и хулиганистый, с невероятным чувством юмора и по-детски непосредственный, в рамках программы "Маркиза" представил часть своей программы "Коллекция". Он великолепный театральный актер, но определенная часть зрителей любит его кинороли. Дмитрий Назаров много снимается: в его фильмографии более 20 кинокартин и телесериалов, среди которых "Кухня", "Вызов", "Гражданин начальник", "Вокзал", "Штрафбат", "Закон", "Золотой теленок" и другие.
Дополнительная информация:

В данной программе "Из коллекции Дмитрия Назарова" прозвучит:

1. Дмитрий Кедрин, поэма "Зодчие"
2. Рассказ А. Чехова "Свидание хотя и состоялось, но..."
3. Монолог из спектакля "Отелло"
4. Саша Черный, стихи
5. А.С. Пушкин "Скупой рыцарь", монолог Барона
6. Стихи - А. Блок, Н. Гумилев, К. Бальмонт
7. Песни собственного сочинения.
Страна: Россия .
Выпущено: Саратовское телевидение, © СМИ «Телеигра «Маркиза».
Съемка 2009 года.
Релиз
Огромное спасибо Доброму человеку за предоставленый материал!!!
Качество видео:...SATRip
Формат:.................AVI
Видео:..688x512 (1.34:1), 25 fps, XviD MPEG-4 ~1193 kbps avg, 0.14 bit/pixel
Аудио:..48 kHz, MPEG Layer 3, 2 ch, ~128.00 kbps avg

Отчет MediaInfo

Общее
Полное имя : Iz.kollekcii.Dmitriya.Nazarova.2009.XviD.SATRip.fenixclub.avi
Формат : AVI
Формат/Информация : Audio Video Interleave
Размер файла : 453 Мбайт
Продолжительность : 47 м.
Общий поток : 1331 Кбит/сек
Программа кодирования : VirtualDubModRus 1.5.10.2 (build 2542/release)
Библиотека кодирования : VirtualDub build 34753/release
Видео
Идентификатор : 0
Формат : MPEG-4 Visual
Профиль формата : Advanced Simple@L5
Параметр BVOP формата : 2
Параметр QPel формата : Нет
Параметр GMC формата : Без точки перехода
Параметр матрицы формата : Default (H.263)
Режим смешивания : Сжатый битовый поток
Идентификатор кодека : XVID
Идентификатор кодека/Подсказка : XviD
Продолжительность : 47 м.
Битрейт : 1194 Кбит/сек
Ширина : 688 пикселей
Высота : 512 пикселей
Соотношение сторон : 4:3
Частота кадров : 25,000 кадров/сек
Цветовое пространство : YUV
Субдискретизация насыщенности : 4:2:0
Битовая глубина : 8 бит
Тип развёртки : Прогрессивная
Метод сжатия : С потерями
Бит/(Пиксели*Кадры) : 0.136
Размер потока : 406 Мбайт (90%)
Библиотека кодирования : XviD 1.2.1 (UTC 2008-12-04)
Аудио
Идентификатор : 1
Формат : MPEG Audio
Версия формата : Version 1
Профиль формата : Layer 3
Режим : Joint stereo
Расширение режима : MS Stereo
Идентификатор кодека : 55
Идентификатор кодека/Подсказка : MP3
Продолжительность : 47 м.
Вид битрейта : Постоянный
Битрейт : 128 Кбит/сек
Каналы : 2 канала
Частота : 48,0 КГц
Метод сжатия : С потерями
Размер потока : 43,6 Мбайт (10%)
Выравнивание : Разделение по промежуткам
Продолжительность промежутка : 40 мс. (1,00 видеокадр)
Время предзагрузки промежутка : 500 мс.
Библиотека кодирования : LAMEU@$1HґqФвQЂ

Скриншоты

Альтернативный хост

[teatrix.ru].t15441.torrent 
Торрент: Зарегистрирован [ 2016-03-14 00:38 ] · 0739E981BB2001ECE3EF292EB4226F0815FEE214

Скачать .torrent

Скачать

18 KB

Статус: проверено
Скачан: 0 раз
Размер: 453 MB
terms.php



Быстрый ответ

Имя:

      
Для отправки сообщений необходимо включить JavaScript
Показать сообщения:    

Текущее время: 06-Дек 17:11

Часовой пояс: UTC + 3


Вы можете начинать темы
Вы можете отвечать на сообщения
Вы не можете редактировать свои сообщения
Вы не можете удалять свои сообщения
Вы не можете голосовать в опросах
Вы не можете прикреплять файлы к сообщениям
Вы можете скачивать файлы