Роли исполняют. Встреча с Ольгой Будиной [2011, Авторская программа, биография, искусство, SATRip]


Статистика раздачи [Обновить пиров]
Размер:  360 MB   |    Зарегистрирован:  8 месяцев 19 дней   |    Скачан:  1 раз

Полного источника не было: 3 месяца 15 дней

Личеров:  42  [  0 KB/s  ]   Подробная статистика пиров
 
   
 
 
 

[Цитировать]

Роли исполняют. Встреча с Ольгой Будиной
Дата/Год выпуска: 2011
Страна: Россия, ЗАО "Первый канал. Всемирная сеть"
Жанр: Авторская программа, биография, искусство
Продолжительность: 00:25:59
Перевод: Не требуется
Русские субтитры: нет
Описание: Авторская программа Марины Райкиной. Рассказы о знаковых театральных спектаклях - и, конечно, встречи с любимыми театральными актерами - это "Роли исполняют...", форма эксклюзивного интервью. Доверительный разговор о любви, о жизни, и, конечно, о новых ролях. В этой передаче речь пойдет об Ольге Александровне Будиной - российской актрисе театра и кино, лауреате Государственной премии России в области литературы и искусства (2001), лучшей актрисе года («Первый канал») (2002), обладателе награды «Легенда России», члене Правления Союза кинематографистов, участнице списка 10 самых красивых женщин России («Русский репортёр») (2008). Именем Ольги Будиной названа звезда девятой величины в созвездии Стрельца.
качество: SATRip
формат: AVI
Видео: XviD, 1800 Кбит/с, 688х528
Аудио: MP3, 2 ch, 128 Кбит/с

MediaInfo

Complete name                            : D:\Golubkina\Роли исполняют.Ольга Будина.2011.SATRip.avi
Format : AVI
Format/Info : Audio Video Interleave
File size : 360 MiB
Duration : 25mn 59s
Overall bit rate : 1 937 Kbps
Writing application : VirtualDubMod 1.5.10.3 | www.virtualdub-fr.org || (build 2550/release)
Writing library : VirtualDubMod build 2550/release
Video
ID : 0
Format : MPEG-4 Visual
Format profile : Advanced Simple@L5
Format settings, BVOP : 2
Format settings, QPel : No
Format settings, GMC : No warppoints
Format settings, Matrix : Default (MPEG)
Codec ID : XVID
Codec ID/Hint : XviD
Duration : 25mn 59s
Bit rate : 1 800 Kbps
Width : 688 pixels
Height : 528 pixels
Display aspect ratio : 4:3
Frame rate : 25.000 fps
Color space : YUV
Chroma subsampling : 4:2:0
Bit depth : 8 bits
Scan type : Progressive
Compression mode : Lossy
Bits/(Pixel*Frame) : 0.198
Stream size : 335 MiB (93%)
Writing library : XviD 1.2.1 (UTC 2008-12-04)
Audio
ID : 1
Format : MPEG Audio
Format version : Version 1
Format profile : Layer 3
Codec ID : 55
Codec ID/Hint : MP3
Duration : 25mn 59s
Bit rate mode : Constant
Bit rate : 128 Kbps
Channel(s) : 2 channels
Sampling rate : 48.0 KHz
Compression mode : Lossy
Stream size : 23.8 MiB (7%)
Alignment : Aligned on interleaves
Interleave, duration : 40 ms (1.00 video frame)
Interleave, preload duration : 504 ms
Writing library : LAME3.99r
Encoding settings : -m s -V 4 -q 2 -lowpass 17 -b 128

Скриншоты


[teatrix.ru].t15442.torrent 
Торрент: Зарегистрирован [ 2016-03-14 00:38 ] · 9D87E8F99D87B4B734430F583D2F2A439063EC2A

Скачать .torrent

Скачать

8 KB

Статус: проверено
Скачан: 1 раз
Размер: 360 MB
terms.php



Быстрый ответ

Имя:

      
Для отправки сообщений необходимо включить JavaScript
Показать сообщения:    

Текущее время: 02-Дек 23:09

Часовой пояс: UTC + 3


Вы можете начинать темы
Вы можете отвечать на сообщения
Вы не можете редактировать свои сообщения
Вы не можете удалять свои сообщения
Вы не можете голосовать в опросах
Вы не можете прикреплять файлы к сообщениям
Вы можете скачивать файлы