Сад Серджу Челибидаке / The Garden of Celibidache (Le jardin de Celibidache) (Серж Ян Челибидаке / Serge Ioan Celebidachi)[1996, Classical & Documentary, DVDRip-AVC][Русские субтитры (Elena-Rybka) + Eng, Fre, Ger, Spa, Ita, Dut. Sub's]


 

[Цитировать]

-— Великие дирижёры двадцатого столетия —
Студия 'Celi production' представляет
»«САД Серджу ЧЕЛИБИДАКЕ»«
28 июня (June 28,) 1912 - 14 августа (August 14,) 1996-- Год записи: 1996
Дата выхода: 2003 @ IMDB
•••
Лейбл: K-Films Vidéo
Страна: France
Жанр: Classical, Documentary
Продолжительность: 147 min.
Язык: Французский/Немецкий/Английский
Авторский перевод: © Elena-Rybka
Субтитры/Subtitls: РУССКИЕ,
English, French, German, Espanol, Italiano, Nederlands
в составе контейнера

•••
Качество видео: DVDRip-AVC
Исходник: DVD9 [Спасибо, mihailtorrent!]
Формат/Контейнер: MKV
Видео кодек: H.264
Аудио кодек: AC3
Видео поток: 688x404@454, 1085 kbps, 29,970 fps.
Аудио поток: Французский/Немецкий/Английский,
448 kbps, 48,0 KHz, 6 ch оригинальный
•••
Автор сценария и режиссёр: СЕРЖ ЯН ЧЕЛИБИДАКЕ
Serge Ioan Celebidachi
-


W.A. Mozart: Quartet in D minor, K. 421 ;
Symphony in C major, "Jupiter", K. 551 ;
Requiem in D minor, K. 626
J. Haydn: Symphony no. 92 in G major, "Oxford"
L. von Beethoven: Quartet in D major, op. 18, no. 3
F. Schubert: Symphony no. 5 in B flat major
A. Bruckner: Symphony no. 9 in D minor
B. Bartok: Concerto for orchestra

Скриншоты

MediaInfo

-

x264 log


avs [info]: 688x404p 8:9 @ 30000/1001 fps (cfr)
x264 [info]: using SAR=8/9
x264 [info]: using cpu capabilities: MMX2 SSE2Fast SSEMisalign LZCNT
x264 [info]: profile High, level 4.1
x264 [info]: frame I:1290 Avg QP:17.44 size: 35603
x264 [info]: frame P:55246 Avg QP:18.77 size: 11228
x264 [info]: frame B:208186 Avg QP:21.31 size: 2796
x264 [info]: consecutive B-frames: 1.4% 0.6% 5.0% 21.5% 28.8% 36.4% 4.2% 1.2% 0.6% 0.3% 0.1%
x264 [info]: mb I I16..4: 2.9% 79.7% 17.5%
x264 [info]: mb P I16..4: 0.6% 5.8% 1.0% P16..4: 42.0% 29.9% 16.8% 0.0% 0.0% skip: 3.9%
x264 [info]: mb B I16..4: 0.0% 0.3% 0.1% B16..8: 36.6% 8.3% 1.9% direct: 5.7% skip:47.1% L0:37.3% L1:42.8% BI:19.9%
x264 [info]: 8x8 transform intra:77.9% inter:53.8%
x264 [info]: coded y,uvDC,uvAC intra: 83.5% 84.9% 57.9% inter: 19.5% 19.0% 1.7%
x264 [info]: i16 v,h,dc,p: 37% 22% 15% 25%
x264 [info]: i8 v,h,dc,ddl,ddr,vr,hd,vl,hu: 14% 13% 11% 8% 10% 10% 11% 11% 13%
x264 [info]: i4 v,h,dc,ddl,ddr,vr,hd,vl,hu: 37% 9% 5% 6% 9% 8% 10% 7% 9%
x264 [info]: i8c dc,h,v,p: 37% 28% 20% 14%
x264 [info]: Weighted P-Frames: Y:5.2% UV:0.9%
x264 [info]: ref P L0: 40.6% 11.0% 19.3% 5.3% 5.3% 3.4% 3.6% 1.7% 1.8% 1.4% 1.5% 1.2% 1.3% 1.1% 1.2% 0.1%
x264 [info]: ref B L0: 79.9% 11.1% 3.1% 1.5% 1.0% 0.9% 0.7% 0.4% 0.3% 0.3% 0.3% 0.3% 0.2% 0.1%
x264 [info]: ref B L1: 95.7% 4.3%
x264 [info]: kb/s:1130.55
x264 [total]: encoded 264722 frames, 7.30 fps, 1130.55 kb/s
-
General
Unique ID : 245545310525176863177268901367380265520 (0xB8BA4E7EF04B30F588587928A3D54A30)
Complete name : The Garden of Celibidache.mkv
Format : Matroska
Format version : Version 4 / Version 2
File size : 1.63 GiB
Duration : 2h 27mn
Overall bit rate : 1 573 Kbps
Encoded date : UTC 2014-07-29 14:35:53
Writing application : mkvmerge v6.6.0 ('The Edge Of The In Between') built on Dec 1 2013 17:55:00
Writing library : libebml v1.3.0 + libmatroska v1.4.1
Video
ID : 1
Format : AVC
Format/Info : Advanced Video Codec
Format profile : High@L4.1
Format settings, CABAC : Yes
Format settings, ReFrames : 15 frames
Codec ID : V_MPEG4/ISO/AVC
Duration : 2h 27mn
Bit rate : 1 094 Kbps
Width : 688 pixels
Height : 404 pixels
Display aspect ratio : 3:2
Original display aspect ratio : 3:2
Frame rate mode : Constant
Frame rate : 29.970 fps
Color space : YUV
Chroma subsampling : 4:2:0
Bit depth : 8 bits
Scan type : Progressive
Bits/(Pixel*Frame) : 0.131
Stream size : 1.13 GiB (70%)
Writing library : x264 core 130 r2273 b3065e6
Encoding settings : cabac=1 / ref=15 / deblock=1:-2:-2 / analyse=0x3:0x113 / me=umh / subme=9 / psy=1 / psy_rd=1.00:0.15 / mixed_ref=1 / me_range=24 / chroma_me=1 / trellis=2 / 8x8dct=1 / cqm=0 / deadzone=21,11 / fast_pskip=1 / chroma_qp_offset=-3 / threads=2 / lookahead_threads=1 / sliced_threads=0 / nr=0 / decimate=1 / interlaced=0 / bluray_compat=0 / constrained_intra=0 / bframes=10 / b_pyramid=2 / b_adapt=2 / b_bias=0 / direct=1 / weightb=1 / open_gop=0 / weightp=2 / keyint=250 / keyint_min=25 / scenecut=40 / intra_refresh=0 / rc=crf / mbtree=0 / crf=18.0 / qcomp=0.60 / qpmin=0 / qpmax=69 / qpstep=4 / ip_ratio=1.40 / pb_ratio=1.30 / aq=2:1.00
Language : English
Default : Yes
Forced : No
Audio
ID : 2
Format : AC-3
Format/Info : Audio Coding 3
Mode extension : CM (complete main)
Format settings, Endianness : Big
Codec ID : A_AC3
Duration : 2h 27mn
Bit rate mode : Constant
Bit rate : 448 Kbps
Channel(s) : 5 channels
Channel positions : Front: L C R, Side: L R
Sampling rate : 48.0 KHz
Bit depth : 16 bits
Compression mode : Lossy
Stream size : 474 MiB (28%)
Default : Yes
Forced : No
Text #1
ID : 3
Format : UTF-8
Codec ID : S_TEXT/UTF8
Codec ID/Info : UTF-8 Plain Text
Language : Russian
Default : Yes
Forced : No
Text #2
ID : 4
Format : UTF-8
Codec ID : S_TEXT/UTF8
Codec ID/Info : UTF-8 Plain Text
Language : German
Default : No
Forced : No
Text #3
ID : 5
Format : UTF-8
Codec ID : S_TEXT/UTF8
Codec ID/Info : UTF-8 Plain Text
Language : English
Default : No
Forced : No
Text #4
ID : 6
Format : UTF-8
Codec ID : S_TEXT/UTF8
Codec ID/Info : UTF-8 Plain Text
Language : Spanish
Default : No
Forced : No
Text #5
ID : 7
Format : UTF-8
Codec ID : S_TEXT/UTF8
Codec ID/Info : UTF-8 Plain Text
Language : French
Default : No
Forced : No
Text #6
ID : 8
Format : UTF-8
Codec ID : S_TEXT/UTF8
Codec ID/Info : UTF-8 Plain Text
Language : Italian
Default : No
Forced : No
Text #7
ID : 9
Format : UTF-8
Codec ID : S_TEXT/UTF8
Codec ID/Info : UTF-8 Plain Text
Language : Dutch
Default : No
Forced : No
-«Божий сад не имеет границ, он всегда будет приносить плоды.
Там будет вечно жить музыка...»



Показать сообщения:    

Текущее время: 05-Дек 07:31

Часовой пояс: UTC + 3


Вы не можете начинать темы
Вы не можете отвечать на сообщения
Вы не можете редактировать свои сообщения
Вы не можете удалять свои сообщения
Вы не можете голосовать в опросах
Вы не можете прикреплять файлы к сообщениям
Вы не можете скачивать файлы