Встречи с любимыми актерами. Артур Смольянинов [2012 г., Приложение к телеигре, SATRip]


Статистика раздачи [Обновить пиров]
Размер:  1.46 GB   |    Зарегистрирован:  8 месяцев 27 дней   |    Скачан:  0 раз

Полного источника не было: Никогда

Личеров:  42  [  0 KB/s  ]   Подробная статистика пиров
 
   
 
 
 

[Цитировать]

Встречи с любимыми актерами. Артур СмольяниновЖанр: Приложение к телеигре.
Год выпуска: 2012.
Продолжительность: 02:44:13.
Автор и ведущий: Александр Динес.
Гость этой программы: актер Артур Смольянинов.
Описание:
"Маркиза" - это разлекательно-познавательная телеигра, выходящая на Саратовском телевидении с 1993 года. Она состоит из двух частей. В первой части зрители в студии угадывают авторов литературных произведений, сами произведения или их персонажей. Во второй части аудитории требуется определить личность гостя, приглашенного в студию. Как правило, в роли гостя выступает кто-либо из известных актеров, который специально приезжает в Саратов.
В данной раздаче представлено приложение к телеигре - встреча с любимыми актерами. Гость программы - актер Артур Смольянинов.
Артур Смольянинов отвечает на вопросы зрителей и ведущего, рассказывает о своей жизни, об учебе, о работе в театре и кино, делится мнением о своих коллегах, исполняет песни Владимира Высоцкого, группы Сплин, Юлия Кима.

Дополнительная информация:
Страна: Россия .
Выпущено: Саратовское телевидение, © СМИ «Телеигра «Маркиза».
Съемка 2009 года.
Релиз
Огромное спасибо Доброму человеку за предоставленый материал!!!
Качество видео:...SATRip
Формат:.................AVI
Видео:..688x512 (1.34:1), 25 fps, XviD MPEG-4 ~1132 kbps avg, 0.13 bit/pixel
Аудио:..48 kHz, MPEG Layer 3, 2 ch, ~128.00 kbps avg

Отчет MediaInfo

Общее
Полное имя : Vstrechi.s.ljubimymi.aktjorami.Artur.Smolyaninov.2009.XviD.SATRip.fenixclub.avi
Формат : AVI
Формат/Информация : Audio Video Interleave
Размер файла : 1,46 Гбайт
Продолжительность : 2 ч. 44 м.
Общий поток : 1270 Кбит/сек
Программа кодирования : VirtualDubModRus 1.5.10.2 (build 2542/release)
Библиотека кодирования : VirtualDub build 34753/release
Видео
Идентификатор : 0
Формат : MPEG-4 Visual
Профиль формата : Advanced Simple@L5
Параметр BVOP формата : 2
Параметр QPel формата : Нет
Параметр GMC формата : Без точки перехода
Параметр матрицы формата : Default (H.263)
Режим смешивания : Сжатый битовый поток
Идентификатор кодека : XVID
Идентификатор кодека/Подсказка : XviD
Продолжительность : 2 ч. 44 м.
Битрейт : 1132 Кбит/сек
Ширина : 688 пикселей
Высота : 512 пикселей
Соотношение сторон : 4:3
Частота кадров : 25,000 кадров/сек
Цветовое пространство : YUV
Субдискретизация насыщенности : 4:2:0
Битовая глубина : 8 бит
Тип развёртки : Прогрессивная
Метод сжатия : С потерями
Бит/(Пиксели*Кадры) : 0.129
Размер потока : 1,30 Гбайт (89%)
Библиотека кодирования : XviD 1.2.1 (UTC 2008-12-04)
Аудио
Идентификатор : 1
Формат : MPEG Audio
Версия формата : Version 1
Профиль формата : Layer 3
Режим : Joint stereo
Расширение режима : MS Stereo
Идентификатор кодека : 55
Идентификатор кодека/Подсказка : MP3
Продолжительность : 2 ч. 44 м.
Вид битрейта : Постоянный
Битрейт : 128 Кбит/сек
Каналы : 2 канала
Частота : 48,0 КГц
Метод сжатия : С потерями
Размер потока : 150 Мбайт (10%)
Выравнивание : Разделение по промежуткам
Продолжительность промежутка : 40 мс. (1,00 видеокадр)
Время предзагрузки промежутка : 500 мс.
Библиотека кодирования : LAME3.99. j Мh`‰

Скриншоты

Альтернативный хост

[teatrix.ru].t15449.torrent 
Торрент: Зарегистрирован [ 2016-03-14 00:38 ] · 3CF885CB252FE262B721539F837D9E27266EA2C3

Скачать .torrent

Скачать

15 KB

Статус: проверено
Скачан: 0 раз
Размер: 1.46 GB
terms.php



Быстрый ответ

Имя:

      
Для отправки сообщений необходимо включить JavaScript
Показать сообщения:    

Текущее время: 10-Дек 17:39

Часовой пояс: UTC + 3


Вы можете начинать темы
Вы можете отвечать на сообщения
Вы не можете редактировать свои сообщения
Вы не можете удалять свои сообщения
Вы не можете голосовать в опросах
Вы не можете прикреплять файлы к сообщениям
Вы можете скачивать файлы