Кусочек Фантасмагории / A Piece of Phantasmagoria / Fantasumagoria / (Тамура Сигэру) [OVA] [15 из 15] [Без хардсаба] [JAP, SUB] [1995 г., фэнтези, сюрреализм, DVDRip]


 

[Цитировать]

Кусочек Фантасмагории / A Piece of Phantasmagoria / Fantasumagoria / ファンタスマゴリア
Страна: Япония
Год выпуска: 1995 г.
Жанр: фэнтези, сюрреализм, приключения
Тип: OVA
Продолжительность: 01:17:53 (15 эп. ~5 мин.)
Режиссер: Тамура Сигэру / Tamura Shigeru / たむらしげる
Студия: Ai ga areba Daijobu Ltd.
Описание: Кусочек Фантасмагории - аниме Тамуры Сигэру, основанное на иллюстрированной книге, опубликованной в марте 1989 года Kakuusha. В 1995 году был издана цифровая версия этой книги, а также CD-ROM с музыкой и повествованием, под названием "PHANTASMAGORIA Original Graphics & Music". В 1999 году основной материал был переработан и выпущен на VHS и LaserDisc студией Bandai Visual как «Кусочек Фантасмагории». Фильм состоит из 15 эпизодов по 5 минут каждый. В Латинской Америке транслировался на канале Locomotion по выходным дням.
Доп. информация:
Выпуск на DVD: 25.03.1999
Catalog No.: BCBA-0076
Barcode: 4934569600769
Качество: DVDRip
Тип релиза: Без хардсаба
Энкод: fong
Формат видео: MKV
Совместимость с бытовыми плеерами: Нет
Видео: H264 10bit, 640x352 (16:9), 23.976fps, 556 kBit/s
Аудио: Ogg Vorbis,160 kBit/s, 48 kHz, 2ch, язык Японский
Субтитры: встроенные, язык субтитров русский ; Перевод: Мария Ермолаева
Субтитры 2: встроенные, язык субтитров английский
Субтитры 3: встроенные, язык субтитров испанский

Подробные тех. данные

Общее
Уникальный идентификатор : 179849606089277549740495417049145992847 (0x874DC63102FD56F7841C82FE1534E68F)
Полное имя : E:\Downloads\Torrents\A Piece of Phantasmagoria.mkv
Формат : Matroska
Версия формата : Version 4 / Version 2
Размер файла : 407 Мбайт
Продолжительность : 1 ч. 17 м.
Режим общего битрейта : Переменный
Общий поток : 730 Кбит/сек
Дата кодирования : UTC 2014-08-03 11:17:22
Программа кодирования : mkvmerge v7.1.0 ('Good Love') 64bit built on Jul 27 2014 13:06:55
Библиотека кодирования : libebml v1.3.0 + libmatroska v1.4.1
DURATION : 01:16:31.920000000
NUMBER_OF_FRAMES : 336
NUMBER_OF_BYTES : 28386
_STATISTICS_WRITING_APP : mkvmerge v7.1.0 ('Good Love') 64bit built on Jul 27 2014 13:06:55
_STATISTICS_WRITING_DATE_UTC : 2014-08-03 11:17:22
_STATISTICS_TAGS : BPS DURATION NUMBER_OF_FRAMES NUMBER_OF_BYTES
Видео
Идентификатор : 1
Формат : AVC
Формат/Информация : Advanced Video Codec
Профиль формата : High 10@L3.2
Параметр CABAC формата : Да
Параметр ReFrames формата : 8 кадров
Идентификатор кодека : V_MPEG4/ISO/AVC
Продолжительность : 1 ч. 17 м.
Битрейт : 556 Кбит/сек
Ширина : 640 пикселей
Высота : 352 пикселя
Соотношение сторон : 16:9
Режим частоты кадров : Постоянный
Частота кадров : 23,976 кадра/сек
Цветовое пространство : YUV
Субдискретизация насыщенности : 4:2:0
Битовая глубина : 10 бит
Тип развёртки : Прогрессивная
Бит/(Пиксели*Кадры) : 0.103
Размер потока : 310 Мбайт (76%)
Библиотека кодирования : x264 core 125 r2208kMod d9d2288
Настройки программы : cabac=1 / ref=8 / deblock=1:-3:0 / analyse=0x3:0x133 / me=umh / subme=11 / psy=1 / fade_compensate=0.00 / psy_rd=1.00:1.00 / mixed_ref=1 / me_range=24 / chroma_me=1 / trellis=2 / 8x8dct=1 / cqm=0 / deadzone=21,11 / fast_pskip=0 / chroma_qp_offset=-4 / threads=12 / lookahead_threads=2 / sliced_threads=0 / nr=0 / decimate=0 / interlaced=0 / bluray_compat=0 / constrained_intra=0 / bframes=8 / b_pyramid=2 / b_adapt=2 / b_bias=0 / direct=1 / weightb=1 / open_gop=0 / weightp=2 / keyint=250 / keyint_min=1 / scenecut=99 / intra_refresh=0 / rc=crf / mbtree=0 / crf=17.0000 / qcomp=0.80 / qpmin=0 / qpmax=81 / qpstep=4 / ip_ratio=1.40 / pb_ratio=1.30 / aq=1:1.00
Default : Да
Forced : Нет
Коэффициенты матрицы : BT.601
DURATION : 01:17:53.669000000
NUMBER_OF_FRAMES : 112056
NUMBER_OF_BYTES : 336851726
_STATISTICS_WRITING_APP : mkvmerge v7.1.0 ('Good Love') 64bit built on Jul 27 2014 13:06:55
_STATISTICS_WRITING_DATE_UTC : 2014-08-03 11:17:22
_STATISTICS_TAGS : BPS DURATION NUMBER_OF_FRAMES NUMBER_OF_BYTES
Аудио
Идентификатор : 2
Формат : Vorbis
Параметр Floor формата : 1
Идентификатор кодека : A_VORBIS
Продолжительность : 1 ч. 17 м.
Вид битрейта : Переменный
Битрейт : 160 Кбит/сек
Каналы : 2 канала
Частота : 48,0 КГц
Метод сжатия : С потерями
Размер потока : 89,1 Мбайт (22%)
Библиотека кодирования : aoTuV b5d (UTC 2009-03-01)
Язык : Japanese
Default : Да
Forced : Нет
Текст #1
Идентификатор : 3
Формат : UTF-8
Идентификатор кодека : S_TEXT/UTF8
Идентификатор кодека/Информация : UTF-8 Plain Text
Заголовок : Мария Ермолаева
Язык : Russian
Default : Да
Forced : Нет
Текст #2
Идентификатор : 4
Формат : UTF-8
Идентификатор кодека : S_TEXT/UTF8
Идентификатор кодека/Информация : UTF-8 Plain Text
Язык : English
Default : Нет
Forced : Нет
Текст #3
Идентификатор : 5
Формат : ASS
Идентификатор кодека : S_TEXT/ASS
Идентификатор кодека/Информация : Advanced Sub Station Alpha
Метод сжатия : Без потерь
Язык : Spanish
Default : Нет
Forced : Нет
Меню
00:00:00.000 : :THE AURORA SHOW
00:05:13.313 : :THE COLOR FACTORY FROM RAINBOW VALLEY
00:10:27.127 : :GLASSY OCEAN
00:15:39.939 : :THE SOUTHERN COUNTRY
00:20:53.252 : :THE DAY THE LIGHT BULB SHONE
00:26:09.443 : :GHOST TOWN
00:30:49.848 : :MUSHROOM TOWN
00:36:03.161 : :DISTILLERY
00:41:16.474 : :CACTUS CITY
00:46:29.787 : :THE HON-YARA BAKERY
00:51:13.070 : :THE ALTAIR BAR
00:56:26.383 : :ARTIFICIAL MOON
01:01:39.696 : :DIGITAL ZONE
01:06:53.009 : :THE NIGHT OF THE PERSEIDS
01:12:06.322 : :THE END OF THE JOURNEY

Список эпизодов

01. Полярное сияние / The Aurora Show
02. Фабрика красок в Радужной Долине / The Color Factory from Rainbow Valley
03. Стеклянный океан / Glassy Ocean
04. Южные земли / The Southern Country
05. День, когда засияла лампа / The Day the Light Bulb Shone
06. Город призраков / Ghost Town
07. Грибной город / Mushroom Town
08. Перегонный завод / Distillery
09. Город кактусов / Cactus City
10. Пекарня Хон-Яра / The Hon-Yara Bakery
11. Бар Альтаир / The Altair Bar
12. Искусственная луна / Artificial Moon
13. Цифровая зона / Digital Zone
14. Ночь персеид / The Night of the Perseids
15. Конец путешествия / The End of the Journey

Отличия

Отличия от viewtopic.php?t=3226445 - наличие перевода, лучшее качество видео и звука, присутствует навигация по главам.

Сравнение скриншотов:

данная раздача:

другая раздача:

DVD Back cover:

VHS cover:




Показать сообщения:    

Текущее время: 09-Дек 18:33

Часовой пояс: UTC + 3


Вы не можете начинать темы
Вы не можете отвечать на сообщения
Вы не можете редактировать свои сообщения
Вы не можете удалять свои сообщения
Вы не можете голосовать в опросах
Вы не можете прикреплять файлы к сообщениям
Вы не можете скачивать файлы