Театральные встречи. Рождество в доме Шаляпина (Светлана Кокотунова) [1993 г., Театральные встречи, SATRip]


Статистика раздачи [Обновить пиров]
Размер:  698 MB   |    Зарегистрирован:  8 месяцев 28 дней   |    Скачан:  0 раз

Полного источника не было: Никогда

Личеров:  40  [  0 KB/s  ]   Подробная статистика пиров
 
   
 
 
 

[Цитировать]

Театральные встречи. Рождество в доме Шаляпина Год выпуска: 1993.
Жанр: Театральные встречи.
Продолжительность: 00:52:33.
Автор и ведущий: Борис Поюровский.
Режиссёр: Светлана Кокотунова.
Операторы: Владимир Щёголев, Владимир Стрельцов, Алексей Рыбаков.
В передаче принимают участие:
Евгений Симонов, Наталья Шпиллер, Андрей Рапопорт, Евгения Шевелева, Алексей Булатов, Светлана Собинова, Артур Эйзен, Александр Михайлов, Евгения Симонова, Музыкально-эксцентрическая группа "Джаз-балалайка".
Описание:
Театральные встречи прошли в доме Шаляпина в Рождество 1993 года.
Дополнительная информация:
Страна: Россия .
Выпущено: Студия литературно-художественных программ Телекомпании "Останкино".
Релиз
Огромное спасибо Доброму человеку за предоставленый материал!!!
Огромное спасибо художнику студии постеров кинозала OLARRI за эксклюзивный постер!!!
Качество видео:...SATRip
Формат:.................AVI
Видео:..688x512 (1.34:1), 25 fps, XviD MPEG-4 ~1655 kbps avg, 0.19 bit/pixel
Аудио:..48 kHz, MPEG Layer 3, 2 ch, ~192.00 kbps avg

Отчет MI

Общее
Полное имя : Teatral'nye.vstrechi.Rozhdestvo.v.dome.Shalyapina.1993.XviD.SATRip.fenixclub.avi
Формат : AVI
Формат/Информация : Audio Video Interleave
Размер файла : 698 Мбайт
Продолжительность : 52 м.
Общий поток : 1857 Кбит/сек
Программа кодирования : VirtualDubModRus 1.5.10.2 (build 2542/release)
Библиотека кодирования : VirtualDub build 34753/release
Видео
Идентификатор : 0
Формат : MPEG-4 Visual
Профиль формата : Advanced Simple@L5
Параметр BVOP формата : 2
Параметр QPel формата : Нет
Параметр GMC формата : Без точки перехода
Параметр матрицы формата : Default (H.263)
Режим смешивания : Сжатый битовый поток
Идентификатор кодека : XVID
Идентификатор кодека/Подсказка : XviD
Продолжительность : 52 м.
Битрейт : 1656 Кбит/сек
Ширина : 688 пикселей
Высота : 512 пикселей
Соотношение сторон : 4:3
Частота кадров : 25,000 кадров/сек
Цветовое пространство : YUV
Субдискретизация насыщенности : 4:2:0
Битовая глубина : 8 бит
Тип развёртки : Прогрессивная
Метод сжатия : С потерями
Бит/(Пиксели*Кадры) : 0.188
Размер потока : 622 Мбайт (89%)
Библиотека кодирования : XviD 1.2.1 (UTC 2008-12-04)
Аудио
Идентификатор : 1
Формат : MPEG Audio
Версия формата : Version 1
Профиль формата : Layer 3
Режим : Joint stereo
Расширение режима : MS Stereo
Идентификатор кодека : 55
Идентификатор кодека/Подсказка : MP3
Продолжительность : 52 м.
Вид битрейта : Постоянный
Битрейт : 192 Кбит/сек
Каналы : 2 канала
Частота : 48,0 КГц
Метод сжатия : С потерями
Размер потока : 72,2 Мбайт (10%)
Выравнивание : Разделение по промежуткам
Продолжительность промежутка : 40 мс. (1,00 видеокадр)
Время предзагрузки промежутка : 500 мс.

Скриншоты

Альтернативный хост

[teatrix.ru].t15456.torrent 
Торрент: Зарегистрирован [ 2016-03-14 00:37 ] · ED7F8ABBC968F122BB28AB0116BD1E4AD8E72BA1

Скачать .torrent

Скачать

14 KB

Статус: проверено
Скачан: 0 раз
Размер: 698 MB
terms.php



Быстрый ответ

Имя:

      
Для отправки сообщений необходимо включить JavaScript
Показать сообщения:    

Текущее время: 11-Дек 07:16

Часовой пояс: UTC + 3


Вы можете начинать темы
Вы можете отвечать на сообщения
Вы не можете редактировать свои сообщения
Вы не можете удалять свои сообщения
Вы не можете голосовать в опросах
Вы не можете прикреплять файлы к сообщениям
Вы можете скачивать файлы